[ Сегодня на трекере фрилич! Идет свободное скачивание без начисления Download ]

Жека (Евгений Григорьев) - Удивительная жизнь (2014) [FLAC (image+.cue)|Lossless]<Шансон>

 

Создавать темы 01-Янв-2015 17:18

Жека (Евгений Григорьев) - Удивительная жизнь- Год: 2014
Лейбл: United Music Group (UMGCD14-402)
Жанр: Шансон
Продолжительность: 00:49:30
Источний (релизер): defyz86
Кодек: FLAC
Тип рипа: image+.cue
Битрейт: Lossless-Треклист:
01. Удивительная жизнь (4:07)
02. Завяжу я курить (4:07)
03. Пить с ней вино (4:23)
04. Бесаме мучо (4:11)
05. Мам, я не вру (4:01)
06. В тоннеле Третьего кольца (3:41)
07. Глаза бедовые (4:45)
08. К свадьбе заживёт (4:23)
09. Айфон (3:49)
10. Демоны-ангелы (3:55)
11. Пушинка (4:00)
12. С этой осенью вдвоём (4:01)

Отчёт ЕАС&#58;

Exact Audio Copy V1.0 beta 3 from 29. August 2011
Отчёт EAC об извлечении, выполненном 29. декабря 2014, 22:48
Жека (Евгений Григорьев) / Удивительная жизнь
Дисковод: ASUS    DRW-22B3S   Adapter: 0  ID: 1
Режим чтения                 : Достоверность
Использование точного потока : Да
Отключение кэша аудио        : Да
Использование указателей C2  : Нет
Коррекция смещения при чтении                     : 6
Способность читать области Lead-in и Lead-out     : Нет
Заполнение пропущенных сэмплов тишиной            : Да
Удаление блоков с тишиной в начале и конце        : Нет
При вычислениях CRC использовались нулевые сэмплы : Да
Интерфейс                                         : Встроенный Win32-интерфейс для Win NT/2000
Выходной формат : Внутренние WAV-операции
Формат сэмплов  : 44.100 Гц; 16 бит; стерео
TOC извлечённого CD
     Трек |   Старт  | Длительность | Начальный сектор | Конечный сектор
    ---------------------------------------------------------------------
       1  |  0:00.00 |    4:07.72   |           0      |      18596
       2  |  4:07.72 |    4:07.23   |       18597      |      37144
       3  |  8:15.20 |    4:23.33   |       37145      |      56902
       4  | 12:38.53 |    4:11.22   |       56903      |      75749
       5  | 16:50.00 |    4:01.00   |       75750      |      93824
       6  | 20:51.00 |    3:41.71   |       93825      |     110470
       7  | 24:32.71 |    4:45.30   |      110471      |     131875
       8  | 29:18.26 |    4:23.34   |      131876      |     151634
       9  | 33:41.60 |    3:49.65   |      151635      |     168874
      10  | 37:31.50 |    3:55.37   |      168875      |     186536
      11  | 41:27.12 |    4:00.30   |      186537      |     204566
      12  | 45:27.42 |    4:01.34   |      204567      |     222675
Характеристики диапазона извлечения и сообщения об ошибках
Выбранный диапазон
     Имя файла C:\defyz86\2014 - Жека (Евгений Григорьев) - Удивительная жизнь\Жека (Евгений Григорьев) - Удивительная жизнь.wav
     Пиковый уровень 97.7 %
     Скорость извлечения 3.2 X
     Качество диапазона 100.0 %
     CRC теста 68FB20CF
     CRC копии 68FB20CF
     Копирование... OK
Ошибок не произошло
AccurateRip: сводка
Трек  1  отсутствует в базе данных
Трек  2  отсутствует в базе данных
Трек  3  отсутствует в базе данных
Трек  4  отсутствует в базе данных
Трек  5  отсутствует в базе данных
Трек  6  отсутствует в базе данных
Трек  7  отсутствует в базе данных
Трек  8  отсутствует в базе данных
Трек  9  отсутствует в базе данных
Трек 10  отсутствует в базе данных
Трек 11  отсутствует в базе данных
Трек 12  отсутствует в базе данных
Ни одного трека нет в базе AccurateRip
Конец отчёта
==== Контрольная сумма отчёта 2C3CFABEFE7C7049FED4017362360592477A1C9C7397BF0847DC6C99349A304D ====

Спектрограмма&#58;

-
Яндекс.Метрика
Рейтинг@Mail.ru