Во плоти / In the Flesh / Сезон: 1 / Полный / Серии: 3 из 3 (Джонни Кэмпбелл / Jonny Campbell) [2013 г., ужасы, драма, ..., WEB-DLRip] MVO (LostFilm)

 

Создавать темы 01-Янв-2015 16:07

Во плоти / In the Flesh
«Life is hard. Death isn't any easier»
- Русское название: Во плоти
Оригинальное название: In the Flesh
Страна: Великобритания
Год выпуска: 2013
Жанр: ужасы, драма, ...-Озвучка: Студия
Перевод: Многоголосый закадровый, профессиональный-Премьера (мир): 17 марта 2013-Режиссер: Джонни Кэмпбелл / Jonny Campbell, Джим О’Хенлон / Jim O'Hanlon, Дэймон Томас / Damon Thomas, ...
В главных ролях: Люк Ньюберри (Кирен Уокер), Харриет Кейнс (Джем Уокер), Мари Критчли (Сью Уокер), Стив Купер (Стив Уокер), Эмили Беван (Эми Дайер), Кевин Саттон (Гэри Кендал), Стивен Томпсон (Филип Уилсон) ...-Описание фильма:
Через четыре года после начала эпидемии правительство начинает реабилитировать обратившихся в зомби и возвращать их в общество, в том числе и подростка Кирена Уокера, который возвращается домой в свой маленький городок в Ланкашире, чтобы встретиться с враждебностью и своими собственными демонами.-Сезон: 1
Серии: 3 из 3 серий
Продолжительность: ~ 00:59:00 мин серия-Качество видео: WEB-DLRip
Формат: AVI
Видеокодек: XviD
Аудиокодек: MP3
Видео: MPEG-4 Visual at 2069 Кбит/сек: 720 x 400 (1.800) at 25.000 fps, 0.28 Бит/Пиксели
Аудио Rus: MPEG Audio at 192 Кбит/сек: 2 канала, 48,0 КГц |LostFilm|
- -

MediaInfo:

Общее
Полное имя : E:\_Сериалы\_Сериалы\Во плоти\In the Flesh s01.LostFilm\In.The.Flesh.S01E01.rus.LostFilm.TV.avi
Формат : AVI
Формат/Информация : Audio Video Interleave
Размер файла : 917 Мбайт
Продолжительность : 56 м.
Режим общего битрейта : Переменный
Общий поток : 2268 Кбит/сек
Программа кодирования : Nandub v1.0rc2
Библиотека кодирования : Nandub build 1853/release
Видео
Идентификатор : 0
Формат : MPEG-4 Visual
Профиль формата : Advanced [email protected]
Параметр BVOP формата : 2
Параметр QPel формата : Нет
Параметр GMC формата : Без точки перехода
Параметр матрицы формата : Default (H.263)
Идентификатор кодека : XVID
Идентификатор кодека/Подсказка : XviD
Продолжительность : 56 м.
Битрейт : 2069 Кбит/сек
Ширина : 720 пикселей
Высота : 400 пикселей
Соотношение сторон : 16:9
Частота кадров : 25,000 кадров/сек
Цветовое пространство : YUV
Субдискретизация насыщенности : 4:2:0
Битовая глубина : 8 бит
Тип развёртки : Прогрессивная
Метод сжатия : С потерями
Бит/(Пиксели*Кадры) : 0.287
Размер потока : 837 Мбайт (91%)
Библиотека кодирования : XviD 64
Аудио
Идентификатор : 1
Формат : MPEG Audio
Версия формата : Version 1
Профиль формата : Layer 3
Режим : Joint stereo
Расширение режима : MS Stereo
Идентификатор кодека : 55
Идентификатор кодека/Подсказка : MP3
Продолжительность : 56 м.
Вид битрейта : Переменный
Битрейт : 192 Кбит/сек
Каналы : 2 канала
Частота : 48,0 КГц
Метод сжатия : С потерями
Размер потока : 75,4 Мбайт (8%)
Выравнивание : Соединение по промежуткам
Продолжительность промежутка : 24 мс. (0,60 видеокадр)
Время предзагрузки промежутка : 490 мс.
Библиотека кодирования : LAME3.97b
Настройки программы : -m j -V 4 -q 3 -lowpass 18.6 --abr 192
-

Скриншот c названием фильма

-Скриншоты:
-

Еще

-

Как закачать отдельный файл

1. Открыть торрент
2. Снять галки с тех файлов торрента, которые мы не хотим закачивать. Оставляем только на нужных нам файлах (файле).
3. Нажать О.К.
В клиенте utorrent
Инструкция
1) Открыть торрент

2) Снять галки с тех файлов торрента, которые мы не хотим закачивать:
* либо вручную, снимая с каждого файла галку( скрин №1)
* либо, нажав кнопку "Снять метки (Select None)", сняв сразу со всех файлов(скрин №2)
№1

№2

Оставляем только на нужных нам файлах (файле).

3)Нажать О.К
Добавлена третья, заключительная, серия первого сезона
Яндекс.Метрика
Рейтинг@Mail.ru