BadComedian / Выпуски: 1-90 (Евгений Баженов) [2011-2014 г., Видеообзоры, Юмор, WEBRip]

 

Создавать темы 01-Янв-2015 07:40

-[BadComedian] Выпуски 1-90-- Жанр: Видеообзоры, Юмор
Год выпуска: 2011 г.
Продолжительность: ~7-46 мин.
Режиссер: Евгений Баженов
В ролях: Евгений Баженов
Качество видео: WEBRip
Контейнер: MP4
Видео кодек: AVC
Аудио кодек: AAC
Видео: AVC, ~2 000 Кбит/сек, 1280х720, 16х9, ~30 000 кадров/сек, 8 бит, ~0,075 бит/пиксел
Аудио: AAC, ~192 Кбит/сек, 2 канала, Front: L R, 44,1 КГц
Выпуски 1-2:
Видео: AVC, ~380 Кбит/сек, 552х360, 3х2, ~30 000 кадров/сек, 8 бит, ~0,065 бит/пиксел
Аудио: AAC, ~96 Кбит/сек, 2 канала, Front: L R, 44,1 КГц

Описание

«BadComedian» — серия критических обзоров кинофильмов, автором которых является Евгений Баженов. Первый выпуск передачи появился на YouTube 28 марта 2011 года.

Список обзоров фильмов

1. Индийский Кошмар на улице Вязов - Часть 1
2. Индийский Кошмар на улице Вязов - Часть 2
3. Русский Кошмар на улице Вязов
4. Геи ниггеры из космоса
5. Русский форсаж Невский дрифт
6. Русский Рэмбо с Джигурдой. Часть 1
7. Русский Рэмбо с Джигурдой. Часть 2
8. Суперменеджер, или Мотыга судьбы
9. Ночь Бойца
10. ТОР
11. Беременный (2011)
12. ЛИФТ
13. Фобос Клуб Страха
14. Лопухи
15. Мороз по Коже
16. После Жизни
17. Так плохо, что даже не вышло. Часть 1
18. Так плохо, что даже наши Сумерки здесь
19. Я Кукла
20. Легенда острова Двид
21. Реальная сказка от Безрукова
22. Мужской сезон
23. Муж. Сезон ЧАСТЬ 2
24. ССД
25. ЖАРА
26. Тот ещё Карлосон! (Галустян убивает детство)
27. Тот ещё Карлосон! (Галустян убил детство)
28. Утомлённые Солнцем 2
29. Утомлённые Солнцем 2 Предстояние. ОБЗОР. Часть 2
30. Индийские Зловещие Мертвецы
31. Московская Жара
32. Приключения в тридесятом царстве Часть 1
33. Приключения в тридесятом царстве Часть 2
34. Поцелуй сквозь стену
35. Дерзкое Дно
36. Большая РЖАКА
37. Монстры
38. 5 дней в Августе
39. 5 дней в Августе. Часть 2
40. Москва 2017
41. V центурия
42. Сказка Есть
43. СПАРТАкиада
44. Ирония судьбы 2 Продолжение (Новогодний Обзор)
45. Юбилей Прокурора (Новогодний Кокшенов)
46. Бригада 2 НАСЛЕДНИК
47. Уланская баллада
48. Джентльмены удачи 2
49. Билет на Vegas
50. Ведьма
51. Искатели приключений
52. Индийский Коммандос
53. Утомлённые Солнцем 2 ЦИТАДЕЛЬ - ПРАВДА Михалкова. Часть 1
54. Утомлённые Солнцем 2 ЦИТАДЕЛЬ - Финальный плевок в историю
55. О чем молчат девушки
56. КРЕПКИЙ ОРЕШЕК 1-4
57. Крепкий орешек 5
58. Сокровища ОК
59. Company of Heroes 2 (игры от нацистов)
60. Why Russians Hate Company of Heroes 2
61. Человек с бульвара КапуциноК
62. Zомби каникулы
63. После нашей эры
64. Белый Лебедь
65. Убийство в Вегасе
66. Крэйк
67. Индийский БОЛЬШОЙ КУШ
68. Щелкунчик
69. Одноклассники.ru НаКликай удачу
70. Темный мир РАВНОВЕСИЕ
71. Сталинград
72. Друзья Друзей
73. НЕреальная Любовь
74. Горько
75. Залётчики
76. ГЕРАКЛ- Начало легенды
77. Черная Роза
78. Скорый МОСКВА РОССИЯ
79. Конец
80. МОНСТРЫ 2
81. Сибирское Воспитание
82. Синевир
83. Мантикора
84. ДИВЕРГЕНТ
85. КОРПОРАТИВ
86. Выпускной
87. Рождённый американцем
88. Голодные игры
89. Один дома 5
90. Страна хороших деточек

Media Info

General
Complete name : [BadComedian] - Муж. Сезон ЧАСТЬ 2 RUSSIAN COPS.mp4
Format : MPEG-4
Format profile : Base Media / Version 2
Codec ID : mp42
File size : 178 MiB
Duration : 11mn 30s
Overall bit rate mode : Variable
Overall bit rate : 2 159 Kbps
Encoded date : UTC 2014-06-20 00:30:48
Tagged date : UTC 2014-06-20 00:30:48
gsst : 0
gstd : 690908
gssd : B2E3D9B86HH1411765709412541
gshh : r3---sn-gvnuxaxjvh-n8vs.googlevideo.com
Video
ID : 1
Format : AVC
Format/Info : Advanced Video Codec
Format profile : [email protected]
Format settings, CABAC : Yes
Format settings, ReFrames : 1 frame
Codec ID : avc1
Codec ID/Info : Advanced Video Coding
Duration : 11mn 30s
Bit rate : 1 965 Kbps
Maximum bit rate : 5 856 Kbps
Width : 1 280 pixels
Height : 720 pixels
Display aspect ratio : 16:9
Frame rate mode : Constant
Frame rate : 29.970 fps
Color space : YUV
Chroma subsampling : 4:2:0
Bit depth : 8 bits
Scan type : Progressive
Bits/(Pixel*Frame) : 0.071
Stream size : 162 MiB (91%)
Tagged date : UTC 2014-06-20 00:32:42
Audio
ID : 2
Format : AAC
Format/Info : Advanced Audio Codec
Format profile : LC
Codec ID : 40
Duration : 11mn 30s
Bit rate mode : Variable
Bit rate : 192 Kbps
Maximum bit rate : 202 Kbps
Channel(s) : 2 channels
Channel positions : Front: L R
Sampling rate : 44.1 KHz
Compression mode : Lossy
Stream size : 15.8 MiB (9%)
Title : IsoMedia File Produced by Google, 5-11-2011
Encoded date : UTC 2014-06-20 00:31:39
Tagged date : UTC 2014-06-20 00:32:42

Скриншоты

552х360

1280х720

Внимание ! Раздача ведётся путём добавления новых файлов

Внимание! Раздача ведётся путём добавления новых файлов; при каждом добавлении создётся новый торрент. Чтобы начать докачку нового файла, пользователям необходимо сделать следующее:
(1) остановить скачивание,
(2) удалить старый торрент у себя из клиента (старые файлы удалять не надо),
(3) скачать новый торрент и запустить его у себя в клиенте вместо старого, при этом указать клиенту путь в старую папку куда и должно происходить скачивание новых файлов.
Ваш клиент при этом должен произвести хеширование (проверку) старой папки (если не производит сам - помогите ему сделать это), и будет докачивать только те файлы которых у вас ещё нет. Старые файлы при этом не удаляются, а продолжают раздаваться!
Яндекс.Метрика
Рейтинг@Mail.ru