[ Сегодня на трекере фрилич! Идет свободное скачивание без начисления Download ]

Громобой / Pik lik foh (Гордон Чан / Gordon Chan) [1995 г., Боевик, драма, BDRip, 720p] AVO (Андрей Гаврилов) + Original (Chi)

 

Создавать темы 01-Янв-2015 07:31

Громобой / Pik lik foh
Год выпуска: 1995
Производство: Гонконг
Жанр: Боевик, драма
Продолжительность: 01:45:50
Перевод: Авторский (одноголосый, закадровый) Андрей Гаврилов
Оригинальный аудиопоток: китайский
Субтитры: отсутствуют
Режиссер: Гордон Чан / Gordon Chan
В ролях: Джеки Чан, Анита Уэн, Майкл Вонг, Кениа Савада, Торстен Никел, Майкл Иан Лэмберт, Кен Ло, Кар Лок Чин
Описание: Альфред Танг знает о машинах абсолютно все. Он не только изумительно водит автомобиль, но и способен по одному звуку мотора опознать марку машины, безошибочно определив, какая деталь в механическом организме машины нуждается в замене.
Альфред, некогда талантливый и бесстрашный гонщик, теперь работает механиком-экспертом в фирме своего уважаемого отца. Роковой случай сводит Альфреда с эксцентричным и безжалостным преступником по кличке «Кугар».
Этот тип — тоже крупный специалист по автомобилям, соединяющий, однако, это пристрастие с ужасной тягой к красиво «поставленным» убийствам. Злодей сразу замечает в Альфреде сильного опытного и непредсказуемого соперника, — словом, лучшего партнера в гонках на жутких скоростях.
Чтобы заставить Альфреда играть по своим правилам. Кугар похищает юную сестру героя, предлагая Тангу сразиться с ним на престижном чемпионате в Японии. Отважный Альфред принимает вызов и отправляется спасать сестру.
, КиноПоиск
Качество видео: BDRip
Контейнер: MKV
Стандарт разрешения: 720p
Видео кодек: H.264
Аудио кодек: AC3
Видео: 1280x532, 3241 Kbps, 25.000 кадр/с, 0.190 bt/px
Аудио : AC-3, 192 Kbps, 2 ch, 48.0 KHz Rus Гаврилов
Аудио : AC-3, 192 Kbps, 2 ch, 48.0 KHz Chi Original

Media Info

G:\загрузки\Gromoboy_[Pirat.ca].torrent.mkv
General
Unique ID : 174095806885978324906842422879941984555 (0x82F9A1FD0B492A0FB55994DC2202812B)
Complete name : G:\загрузки\Gromoboy_[Pirat.ca].torrent.mkv
Format : Matroska
Format version : Version 1
File size : 2.73 GiB
Duration : 1h 45mn
Overall bit rate : 3 699 Kbps
Encoded date : UTC 2014-12-31 09:55:46
Writing application : mkvmerge v2.5.3 ('Boogie') built on Mar 7 2009 15:00:41
Writing library : libebml v0.7.7 + libmatroska v0.8.1
Video #1
ID : 1
Format : AVC
Format/Info : Advanced Video Codec
Format profile : [email protected]
Format settings, CABAC : Yes
Format settings, ReFrames : 12 frames
Codec ID : V_MPEG4/ISO/AVC
Duration : 1h 45mn
Bit rate : 3 241 Kbps
Width : 1 280 pixels
Height : 532 pixels
Display aspect ratio : 2.40:1
Frame rate mode : Constant
Frame rate : 25.000 fps
Color space : YUV
Chroma subsampling : 4:2:0
Bit depth : 8 bits
Scan type : Progressive
Bits/(Pixel*Frame) : 0.190
Stream size : 2.40 GiB (88%)
Writing library : x264 core 130 r2273 b3065e6
Encoding settings : cabac=1 / ref=12 / deblock=1:-3:-3 / analyse=0x3:0x133 / me=umh / subme=11 / psy=1 / psy_rd=1.00:0.10 / mixed_ref=1 / me_range=32 / chroma_me=1 / trellis=2 / 8x8dct=1 / cqm=0 / deadzone=21,11 / fast_pskip=1 / chroma_qp_offset=-3 / threads=6 / lookahead_threads=1 / sliced_threads=0 / nr=0 / decimate=1 / interlaced=0 / bluray_compat=0 / constrained_intra=0 / bframes=8 / b_pyramid=2 / b_adapt=2 / b_bias=0 / direct=1 / weightb=1 / open_gop=0 / weightp=2 / keyint=250 / keyint_min=25 / scenecut=40 / intra_refresh=0 / rc_lookahead=50 / rc=crf / mbtree=1 / crf=18.0 / qcomp=0.60 / qpmin=0 / qpmax=51 / qpstep=4 / ip_ratio=1.40 / aq=1:1.00
Language : Chinese
Default : Yes
Forced : No
Audio #2
ID : 2
Format : AC-3
Format/Info : Audio Coding 3
Mode extension : CM (complete main)
Format settings, Endianness : Big
Codec ID : A_AC3
Duration : 1h 45mn
Bit rate mode : Constant
Bit rate : 192 Kbps
Channel(s) : 2 channels
Channel positions : Front: L R
Sampling rate : 48.0 KHz
Bit depth : 16 bits
Compression mode : Lossy
Stream size : 145 MiB (5%)
Title : AVO Гаврилов
Language : Russian
Default : Yes
Forced : No
Audio #3
ID : 3
Format : AC-3
Format/Info : Audio Coding 3
Format profile : Dolby Digital
Mode extension : CM (complete main)
Format settings, Endianness : Big
Codec ID : A_AC3
Duration : 1h 45mn
Bit rate mode : Constant
Bit rate : 192 Kbps
Channel(s) : 2 channels
Channel positions : Front: L R
Sampling rate : 48.0 KHz
Bit depth : 16 bits
Compression mode : Lossy
Stream size : 145 MiB (5%)
Language : Chinese
Default : No
Forced : No

log x.264

x264 [info]: frame I:1620  Avg QP:15.89  size: 87504
x264 [info]: frame P:44883 Avg QP:19.62 size: 29401
x264 [info]: frame B:112223 Avg QP:22.20 size: 10400
x264 [info]: consecutive B-frames: 4.0% 6.7% 11.0% 58.8% 11.5% 6.7% 0.7% 0.4% 0.1%
x264 [info]: mb I I16..4: 2.8% 80.2% 17.0%
x264 [info]: mb P I16..4: 3.0% 20.9% 2.3% P16..4: 29.5% 32.4% 8.4% 1.0% 0.1% skip: 2.5%
x264 [info]: mb B I16..4: 0.5% 3.4% 0.4% B16..8: 34.9% 19.8% 2.5% direct: 5.8% skip:32.8% L0:40.1% L1:46.4% BI:13.5%
x264 [info]: 8x8 transform intra:79.5% inter:73.3%
x264 [info]: coded y,uvDC,uvAC intra: 78.0% 77.8% 36.6% inter: 25.3% 29.0% 2.6%
x264 [info]: i16 v,h,dc,p: 19% 14% 3% 63%
x264 [info]: i8 v,h,dc,ddl,ddr,vr,hd,vl,hu: 11% 10% 4% 8% 12% 13% 13% 13% 15%
x264 [info]: i4 v,h,dc,ddl,ddr,vr,hd,vl,hu: 25% 12% 4% 6% 11% 12% 11% 9% 10%
x264 [info]: i8c dc,h,v,p: 29% 28% 22% 20%
x264 [info]: Weighted P-Frames: Y:1.9% UV:1.0%
x264 [info]: ref P L0: 52.6% 11.1% 17.2% 4.9% 3.9% 2.5% 2.3% 1.2% 1.2% 1.0% 1.0% 0.9% 0.2% 0.0%
x264 [info]: ref B L0: 84.5% 8.5% 2.8% 1.3% 0.8% 0.7% 0.5% 0.3% 0.3% 0.2% 0.1%
x264 [info]: ref B L1: 96.4% 3.6%
x264 [info]: kb/s:3311.96
x264 [total]: encoded 158726 frames, 4.62 fps, 3311.97 kb/s

Скриншоты

Яндекс.Метрика
Рейтинг@Mail.ru