[ Сегодня на трекере фрилич! Идет свободное скачивание без начисления Download ]

(Italo-Disco) [CD] Savage - The Original Maxi-Singles Collection - 2014, FLAC (image+.cue), lossless

 

Создавать темы 31-Дек-2014 03:53

--Savage - The Original Maxi-Singles Collection-- Жанр: Italo-Disco
Носитель: CD
Год издания: 2014
Издатель (лейбл): Pokorny Music Solutions
Каталожный номер: PMS 027
Страна-производитель диска: EU
Аудиокодек: FLAC (*.flac)
Тип рипа: image+.cue
Битрейт аудио: lossless
Продолжительность: 01:19:57
Наличие сканов в содержимом раздачи: нет
Треклист:

01. Don't Cry Tonight (12" Version) 6:45
02. Only You (12" Version) 6:59
03. Radio (12" Version) 6:00
04. A Love Again (Special Remix) 6:32
05. Fugitive (12" Version) 6:46
06. Time (12" Version) 5:11
07. Love Is Death (Extended Version) 6:14
08. Celebrate (Military Mix) 5:44
09. I'm Losing You (Extended Version) 6:14
10. So Close (Long Version) 6:39
11. Good-Bye (Extended Version) 6:39
12. I Just Died In Your Arms (Extended Version) 5:36
13. Don't Leave Me (Extended Version) 4:39

Отчёт EAC

Exact Audio Copy V1.0 beta 3 from 29. August 2011
Отчёт EAC об извлечении, выполненном 30. декабря 2014, 7:32
Savage / The Original Maxi - Singles Collection
Дисковод: TSSTcorpCDDVDW SH-S223B Adapter: 0 ID: 0
Режим чтения : Достоверность
Использование точного потока : Да
Отключение кэша аудио : Да
Использование указателей C2 : Нет
Коррекция смещения при чтении : 6
Способность читать области Lead-in и Lead-out : Нет
Заполнение пропущенных сэмплов тишиной : Да
Удаление блоков с тишиной в начале и конце : Нет
При вычислениях CRC использовались нулевые сэмплы : Да
Интерфейс : Встроенный Win32-интерфейс для Win NT/2000
Выходной формат : Пользовательский кодировщик
Выбранный битрейт : 128 kBit/s
Качество : Высокий
Добавление ID3-тега : Нет
Утилита сжатия : C:\Program Files (x86)\Exact Audio Copy\Flac\flac.exe
Дополнительные параметры : -V -8 -T "Date=%year%" -T "Genre=%genre%" %source%
TOC извлечённого CD
Трек | Старт | Длительность | Начальный сектор | Конечный сектор
---------------------------------------------------------------------
1 | 0:00.00 | 6:45.02 | 0 | 30376
2 | 6:45.02 | 6:59.08 | 30377 | 61809
3 | 13:44.10 | 6:00.34 | 61810 | 88843
4 | 19:44.44 | 6:32.24 | 88844 | 118267
5 | 26:16.68 | 6:45.48 | 118268 | 148690
6 | 33:02.41 | 5:10.65 | 148691 | 172005
7 | 38:13.31 | 6:14.04 | 172006 | 200059
8 | 44:27.35 | 5:44.21 | 200060 | 225880
9 | 50:11.56 | 6:13.34 | 225881 | 253889
10 | 56:25.15 | 6:38.49 | 253890 | 283788
11 | 63:03.64 | 6:38.29 | 283789 | 313667
12 | 69:42.18 | 5:36.07 | 313668 | 338874
13 | 75:18.25 | 4:39.45 | 338875 | 359844
Характеристики диапазона извлечения и сообщения об ошибках
Выбранный диапазон
Имя файла M:\Savage - The Original Maxi - Singles Collection.wav
Пиковый уровень 100.0 %
Скорость извлечения 8.3 X
Качество диапазона 100.0 %
CRC теста 797741F1
CRC копии 797741F1
Копирование... OK
Ошибок не произошло
AccurateRip: сводка
Трек 1 отсутствует в базе данных
Трек 2 отсутствует в базе данных
Трек 3 отсутствует в базе данных
Трек 4 отсутствует в базе данных
Трек 5 отсутствует в базе данных
Трек 6 отсутствует в базе данных
Трек 7 отсутствует в базе данных
Трек 8 отсутствует в базе данных
Трек 9 отсутствует в базе данных
Трек 10 отсутствует в базе данных
Трек 11 отсутствует в базе данных
Трек 12 отсутствует в базе данных
Трек 13 отсутствует в базе данных
Ни одного трека нет в базе AccurateRip
Конец отчёта
==== Контрольная сумма отчёта 1442C07D59E5F8D9DEAA83C580DAEE11C67EC4A850F9E0B876CE1B475DC38E42 ====
Яндекс.Метрика
Рейтинг@Mail.ru