[ Сегодня на трекере фрилич! Идет свободное скачивание без начисления Download ]

Общак / The Drop (Михаэль Р. Роскам / Michaël R. Roskam) [2014 г., драма, криминал, HDRip] Dub (iTunes)

 

Создавать темы 31-Дек-2014 03:21

-Общак / The Drop- Производство: США
Год выпуска: 2014 г.
Жанр: драма, криминал
Продолжительность: 01:46:44
Мировая премьера: 5 сентября 2014
Российская премьера: 30 октября 2014, «Двадцатый Век Фокс СНГ»
Дата выхода DVD: 22 января 2015, «Двадцатый Век Фокс СНГ»
Дата выхода Blu-Ray: 22 января 2015, «Двадцатый Век Фокс СНГ»
Перевод: Профессиональный (полное дублирование) [iTunes]-Режиссер: Михаэль Р. Роскам / Michaël R. Roskam
В ролях: Том Харди, Нуми Рапас, Джеймс Гандольфини, Маттиас Шонартс, Джон Ортис, Элизабет Родригес, Майкл Аронов, Морган Спектор, Майкл Эспер, Росс Бикелл-Описание: Боб Сагиновски оказывается в центре ограбления, из-за расследования которого может всплыть прошлое района, когда друзья, семьи и заклятые враги — все работали вместе, чтобы выжить…- -Качество видео: HDRip
Контейнер: AVI
Видео кодек: XviD
Аудио кодек: AC3
Видео: 720x304 (2.37:1), 23.976 fps, XviD build 50 ~1565 kbps avg, 0.30 bit/pixel
Аудио: 48 kHz, AC3 Dolby Digital, 3/2 (L,C,R,l,r) + LFE ch, ~384 kbps
Cубтитры: отсутствуют

Media Info

General
Complete name : D:\0bshak.2014.D.HDRip.1.46GB.avi
Format : AVI
Format/Info : Audio Video Interleave
File size : 1.46 GiB
Duration : 1h 46mn
Overall bit rate : 1 958 Kbps
Writing application : VirtualDubMod 1.5.10.3 | www.virtualdub-fr.org || (build 2550/release)
Writing library : VirtualDubMod build 2550/release
Video
ID : 0
Format : MPEG-4 Visual
Format profile : Advanced [email protected]
Format settings, BVOP : 2
Format settings, QPel : No
Format settings, GMC : No warppoints
Format settings, Matrix : Default (MPEG)
Codec ID : XVID
Codec ID/Hint : XviD
Duration : 1h 46mn
Bit rate : 1 566 Kbps
Width : 720 pixels
Height : 304 pixels
Display aspect ratio : 2.35:1
Frame rate : 23.976 fps
Color space : YUV
Chroma subsampling : 4:2:0
Bit depth : 8 bits
Scan type : Progressive
Compression mode : Lossy
Bits/(Pixel*Frame) : 0.298
Stream size : 1.17 GiB (80%)
Writing library : XviD 1.2.1 (UTC 2008-12-04)
Audio
ID : 1
Format : AC-3
Format/Info : Audio Coding 3
Mode extension : CM (complete main)
Format settings, Endianness : Big
Codec ID : 2000
Duration : 1h 46mn
Bit rate mode : Constant
Bit rate : 384 Kbps
Channel(s) : 6 channels
Channel positions : Front: L C R, Side: L R, LFE
Sampling rate : 48.0 KHz
Bit depth : 16 bits
Compression mode : Lossy
Stream size : 293 MiB (20%)
Alignment : Split accross interleaves
Interleave, duration : 42 ms (1.00 video frame)
Interleave, preload duratio : 500 ms

Скриншоты

Яндекс.Метрика
Рейтинг@Mail.ru