[ Сегодня на трекере фрилич! Идет свободное скачивание без начисления Download ]

Библиотекари / The Librarians (Сезон 1 / Серии: 4 из 10 серии) (Дин Девлин / Dean Devlin ...) [2014 г., приключения, ..., WEB-DLRip] MVO (BaibaKo) + Original (Eng) [обновляемая]

 

Создавать темы 31-Дек-2014 03:18

Библиотекари / The Librarians
«Filing evil under history»
- Русское название: Библиотекари
Оригинальное название: The Librarians
Страна: США
Год выпуска: 2014
Жанр: приключения, ...-Релиз:
Перевод: Многоголосый закадровый, профессиональный
Оригинальный аудиопоток: английский-Авторы перевода: Янина Галицкая
Озвучка: Светлана Доманова, Ольга Мотрич, Юлия Котурбаш, Дмитрий Нежельский, Акмал Гурезов и Олекса Мельник
Обложка: tvblog-Режиссер: Дин Девлин / Dean Devlin, Джонатан Фрейкс / Jonathan Frakes
Актеры: Ноа Уайли, Джон Ларрокетт, Ребекка Ромейн, Кристиан Кейн, Джон Ким, Линди Бут, Лесли-Энн Брандт, Джейн Куртин, Боб Ньюхарт, Бен Эндрюс ...-Описание фильма:
Сериал снят по мотивам серии фильмов «Библиотекарь», повествующей о Флинне Карсене, который узнает, что его миссия заключается в том, чтобы охранять магические артефакты в старинной библиотеке. Он вербует четырёх обычных людей, собирая команду по борьбе с тёмной магией и древними заговорами. Под его руководством они научатся самозащите и боевым приемам, чтобы отправиться на поиски загадочных артефактов и спасти их от злодеев, желающих захватить мир.-Премьера (мир): 7 декабря 2014, ...-Сезон: 1
Серии: 4 из 10 серий
Продолжительность: ~ 00:57:00 серия-Качество видео: WEB-DLRip
Контейнер: AVI
Видео кодек: XviD
Аудио кодек: AC-3
Видео: MPEG-4 Visual at 1503 Кбит/сек: 720 x 400 (1.800) at 23.976 fps, 0.22 Бит/Пиксели
Аудио Rus: AC-3 at 192 Кбит/сек: 2 канала, 48,0 КГц |BaibaKo|
Аудио Eng: AC-3 at 192 Кбит/сек: 2 канала, 48,0 КГц |Original|
Cубтитры: отсутствуют
- -

Список серий:

  • Библиотекари и корона короля Артура (And the Crown of King Arthur)
  • Библиотекари и меч в камне (And the Sword in the Stone)
  • Библиотекари и рога Дилеммы (And the Horns of a Dilemma)
  • И полуночный пробег Санты (And Santa's Midnight Run)


  • (And the Apple of Discord)

  • (And the Fables of Doom)

  • (And the Rule of Three)

  • (And the Heart of Darkness)

  • (And the City of Light)

  • (And the Loom of Fate)
-

MediaInfo:

Общее
Полное имя : E:\_Сериалы\_Сериалы\Библиотекари\The Librarians s01.BaibaKo\The.Librarians.s01e01.WEB-DLRip.XviD.Rus.Eng.BaibaKo.tv.avi
Формат : AVI
Формат/Информация : Audio Video Interleave
Размер файла : 785 Мбайт
Продолжительность : 57 м.
Общий поток : 1901 Кбит/сек
Программа кодирования : VirtualDubMod 1.5.10.2 (build 2540/release)
Библиотека кодирования : VirtualDubMod build 2540/release
Видео
Идентификатор : 0
Формат : MPEG-4 Visual
Профиль формата : Advanced [email protected]
Параметр BVOP формата : 2
Параметр QPel формата : Нет
Параметр GMC формата : Без точки перехода
Параметр матрицы формата : Default (MPEG)
Идентификатор кодека : XVID
Идентификатор кодека/Подсказка : XviD
Продолжительность : 57 м.
Битрейт : 1503 Кбит/сек
Ширина : 720 пикселей
Высота : 400 пикселей
Соотношение сторон : 16:9
Частота кадров : 23,976 кадра/сек
Цветовое пространство : YUV
Субдискретизация насыщенности : 4:2:0
Битовая глубина : 8 бит
Тип развёртки : Прогрессивная
Метод сжатия : С потерями
Бит/(Пиксели*Кадры) : 0.218
Размер потока : 621 Мбайт (79%)
Библиотека кодирования : XviD 1.2.0.dev47 (UTC 2006-11-01)
Аудио #1
Идентификатор : 1
Формат : AC-3
Формат/Информация : Audio Coding 3
Расширение режима : CM (complete main)
Параметр Endianness формата : Big
Идентификатор кодека : 2000
Продолжительность : 57 м.
Вид битрейта : Постоянный
Битрейт : 192 Кбит/сек
Каналы : 2 канала
Расположение каналов : Front: L R
Частота : 48,0 КГц
Битовая глубина : 16 бит
Метод сжатия : С потерями
Размер потока : 79,3 Мбайт (10%)
Выравнивание : Разделение по промежуткам
Продолжительность промежутка : 42 мс. (1,00 видеокадр)
Время предзагрузки промежутка : 500 мс.
Аудио #2
Идентификатор : 2
Формат : AC-3
Формат/Информация : Audio Coding 3
Расширение режима : CM (complete main)
Параметр Endianness формата : Big
Идентификатор кодека : 2000
Продолжительность : 57 м.
Вид битрейта : Постоянный
Битрейт : 192 Кбит/сек
Каналы : 2 канала
Расположение каналов : Front: L R
Частота : 48,0 КГц
Битовая глубина : 16 бит
Метод сжатия : С потерями
Размер потока : 79,3 Мбайт (10%)
Выравнивание : Разделение по промежуткам
Продолжительность промежутка : 42 мс. (1,00 видеокадр)
Время предзагрузки промежутка : 500 мс.
-

Скриншот c названием фильма

-Скриншоты:
-

Еще

-

Внимание! Раздача ведётся путём добавления новых серий!

Раздача ведётся путём добавления новых серий; при каждом добавлении создаётся новый торрент.
Чтобы начать докачку новой серии, пользователям необходимо сделать следующее:
1. остановить скачивание,
2. удалить старый торрент у себя из клиента (старые серии удалять не надо),
3. скачать новый торрент и запустить его у себя в клиенте вместо старого, при этом указать клиенту путь в старую папку, куда и должно происходить скачивание новых серий.
Ваш клиент при этом должен произвести хеширование (проверку) старой папки (если не производит сам - помогите ему сделать это), и будет докачивать только те серии которых у вас ещё нет. Старые серии при этом не удаляются, а продолжают раздаваться!
Eсли вы уже удалили старые серии, то предотвратить повторную закачку старых серий можно, отжав галочку в соответствующих местах при запуске нового торрента. По возможности, желательно не удалять старые серии как можно дольше, чтобы релизёр не столько продолжал раздавать старые серии, а смог сконцентрироваться на новых.
Совет для тех, кто не хочет ждать перехеширования:
Создайте ещё одну папку рядом с папкой сериала (рядом, а не в ней!!!). Каждую новую серию после удачной загрузки копируйте в новую папку так чтобы ваша основная папка всегда была пуста. Когда ваш новый торрент предложит вам закачать все файлы, выберете только последнюю. Для сидирования же укажите адрес новой папки.
Как закачать отдельный файл из торрента или докачать ранее пропущенные файлы торрента!
-

Как закачать отдельный файл

1. Открыть торрент
2. Снять галки с тех файлов торрента, которые мы не хотим закачивать. Оставляем только на нужных нам файлах (файле).
3. Нажать О.К.
В клиенте utorrent
Инструкция
1) Открыть торрент

2) Снять галки с тех файлов торрента, которые мы не хотим закачивать:
* либо вручную, снимая с каждого файла галку( скрин №1)
* либо, нажав кнопку "Снять метки (Select None)", сняв сразу со всех файлов(скрин №2)
№1

№2

Оставляем только на нужных нам файлах (файле).

3)Нажать О.К
-Добавлена четвертая серия первого сезона
Яндекс.Метрика
Рейтинг@Mail.ru