Городской охотник / Sing si lip yan (Цзин Вон / Jing Wong) [1993 г., Боевик, комедия, BDRip, 720p] MVO + VO (Неизвестный VHS) + AVO (Карцев, Живов, Карповский) + Original (Chi)

 

Создавать темы 31-Дек-2014 03:16

Городской охотник / Sing si lip yan
Год выпуска: 1993
Производство: Гоконг, Япония
Жанр: Боевик, комедия
Продолжительность: 01:39:03
Перевод: Профессиональный (многоголосый, закадровый) MVO
Перевод : Любительский (одноголосый, закадровый) Неизвестный VHS
Перевод : Авторский (одноголосый, закадровый) Пётр Карцев, Юрий Живов, Антон Карповский
Оригинальный аудиопоток: китайский
Субтитры: отсутствуют
Режиссер: Цзин Вон / Jing Wong
В ролях: Джеки Чан, Джои Ван, Чингми Яу, Ричард Нортон, Майкл Вонг, Гэри Дэниелс, Кумико Гото, Леон Лай, Майк Эбботт, Чан Сай Тенг
Описание: Герой Джеки Чана — плейбой, полусыщик, полунаемник и целиком бабник. К нему обращается газетный магнат Имамура, у которого пропала дочь. Джеки пробирается на роскошный круизный лайнер, на котором разношерстная банда преступников держит свою жертву. Доступным лишь одному ему способом, Джеки удается изрядно подпортить путешествие этим подонкам и освободить прекраснейшую из женщин.
, КиноПоиск
Качество видео: BDRip
Контейнер: MKV
Стандарт разрешения: 720p
Видео кодек: H.264
Аудио кодек: AC3
Видео: 1280x688, 6816 Kbps, 24.000 кадр/с, 0.322 bt/px
Аудио : AC-3, 192 Kbps, 2 ch, 48.0 KHz Rus MVO
Аудио : AC-3, 192 Kbps, 2 ch, 48.0 KHz Rus Неизвестный VHS
Аудио : AC-3, 192 Kbps, 2 ch, 48.0 KHz Rus Карцев
Аудио : AC-3, 192 Kbps, 2 ch, 48.0 KHz Rus Живов
Аудио : AC-3, 448 Kbps, 6 ch, 48.0 KHz Rus Карповский
Аудио : AC-3, 448 Kbps, 6 ch, 48.0 KHz Chi Original

Media Info

G:\загрузки\City_Hunter_[Pirat.ca].torrent.mkv
General
Unique ID : 211774800091653838947797879055042828455 (0x9F5257C80D853431BE78794F0D3958A7)
Complete name : G:\загрузки\City_Hunter_[Pirat.ca].torrent.mkv
Format : Matroska
Format version : Version 1
File size : 5.86 GiB
Duration : 1h 39mn
Overall bit rate : 8 463 Kbps
Movie name : Respector
Encoded date : UTC 2014-12-30 19:37:02
Writing application : mkvmerge v2.5.3 ('Boogie') built on Mar 7 2009 15:00:41
Writing library : libebml v0.7.7 + libmatroska v0.8.1
Video #1
ID : 1
Format : AVC
Format/Info : Advanced Video Codec
Format profile : [email protected]
Format settings, CABAC : Yes
Format settings, ReFrames : 9 frames
Codec ID : V_MPEG4/ISO/AVC
Duration : 1h 39mn
Bit rate : 6 816 Kbps
Width : 1 280 pixels
Height : 688 pixels
Display aspect ratio : 1.85:1
Frame rate mode : Constant
Frame rate : 24.000 fps
Color space : YUV
Chroma subsampling : 4:2:0
Bit depth : 8 bits
Scan type : Progressive
Bits/(Pixel*Frame) : 0.322
Stream size : 4.59 GiB (78%)
Writing library : x264 core 130 r2273 b3065e6
Encoding settings : cabac=1 / ref=9 / deblock=1:-3:-3 / analyse=0x3:0x133 / me=umh / subme=11 / psy=1 / psy_rd=1.00:0.15 / mixed_ref=1 / me_range=32 / chroma_me=1 / trellis=2 / 8x8dct=1 / cqm=0 / deadzone=21,11 / fast_pskip=0 / chroma_qp_offset=-3 / threads=6 / lookahead_threads=1 / sliced_threads=0 / nr=0 / decimate=0 / interlaced=0 / bluray_compat=0 / constrained_intra=0 / bframes=8 / b_pyramid=2 / b_adapt=2 / b_bias=0 / direct=3 / weightb=1 / open_gop=0 / weightp=2 / keyint=250 / keyint_min=23 / scenecut=40 / intra_refresh=0 / rc_lookahead=50 / rc=abr / mbtree=1 / bitrate=6816 / ratetol=1.0 / qcomp=0.60 / qpmin=0 / qpmax=51 / qpstep=4 / ip_ratio=1.40 / aq=1:1.00
Language : Chinese
Default : Yes
Forced : No
Audio #2
ID : 2
Format : AC-3
Format/Info : Audio Coding 3
Mode extension : CM (complete main)
Format settings, Endianness : Big
Codec ID : A_AC3
Duration : 1h 39mn
Bit rate mode : Constant
Bit rate : 192 Kbps
Channel(s) : 2 channels
Channel positions : Front: L R
Sampling rate : 48.0 KHz
Bit depth : 16 bits
Compression mode : Lossy
Stream size : 136 MiB (2%)
Title : MVO
Language : Russian
Default : Yes
Forced : No
Audio #3
ID : 3
Format : AC-3
Format/Info : Audio Coding 3
Mode extension : CM (complete main)
Format settings, Endianness : Big
Codec ID : A_AC3
Duration : 1h 39mn
Bit rate mode : Constant
Bit rate : 192 Kbps
Channel(s) : 2 channels
Channel positions : Front: L R
Sampling rate : 48.0 KHz
Bit depth : 16 bits
Compression mode : Lossy
Stream size : 136 MiB (2%)
Title : VO (VHS)
Language : Russian
Default : No
Forced : No
Audio #4
ID : 4
Format : AC-3
Format/Info : Audio Coding 3
Mode extension : CM (complete main)
Format settings, Endianness : Big
Codec ID : A_AC3
Duration : 1h 39mn
Bit rate mode : Constant
Bit rate : 192 Kbps
Channel(s) : 2 channels
Channel positions : Front: L R
Sampling rate : 48.0 KHz
Bit depth : 16 bits
Compression mode : Lossy
Stream size : 136 MiB (2%)
Title : AVO Карцев
Language : Russian
Default : No
Forced : No
Audio #5
ID : 5
Format : AC-3
Format/Info : Audio Coding 3
Mode extension : CM (complete main)
Format settings, Endianness : Big
Codec ID : A_AC3
Duration : 1h 39mn
Bit rate mode : Constant
Bit rate : 192 Kbps
Channel(s) : 2 channels
Channel positions : Front: L R
Sampling rate : 48.0 KHz
Bit depth : 16 bits
Compression mode : Lossy
Stream size : 136 MiB (2%)
Title : AVO Живов
Language : Russian
Default : No
Forced : No
Audio #6
ID : 6
Format : AC-3
Format/Info : Audio Coding 3
Mode extension : CM (complete main)
Format settings, Endianness : Big
Codec ID : A_AC3
Duration : 1h 39mn
Bit rate mode : Constant
Bit rate : 448 Kbps
Channel(s) : 6 channels
Channel positions : Front: L C R, Side: L R, LFE
Sampling rate : 48.0 KHz
Bit depth : 16 bits
Compression mode : Lossy
Stream size : 317 MiB (5%)
Title : AVO Карповский
Language : Russian
Default : No
Forced : No
Audio #7
ID : 7
Format : AC-3
Format/Info : Audio Coding 3
Mode extension : CM (complete main)
Format settings, Endianness : Big
Codec ID : A_AC3
Duration : 1h 39mn
Bit rate mode : Constant
Bit rate : 448 Kbps
Channel(s) : 6 channels
Channel positions : Front: L C R, Side: L R, LFE
Sampling rate : 48.0 KHz
Bit depth : 16 bits
Compression mode : Lossy
Stream size : 317 MiB (5%)
Language : Chinese
Default : No
Forced : No

log x.264

x264 [info]: frame I:1100  Avg QP:18.53  size:118430
x264 [info]: frame P:29375 Avg QP:22.18 size: 51230
x264 [info]: frame B:112169 Avg QP:22.84 size: 30435
x264 [info]: consecutive B-frames: 1.8% 1.7% 4.6% 19.6% 18.5% 41.1% 7.1% 3.3% 2.2%
x264 [info]: mb I I16..4: 3.4% 86.8% 9.9%
x264 [info]: mb P I16..4: 0.8% 18.7% 1.3% P16..4: 30.8% 37.4% 9.7% 0.7% 0.0% skip: 0.6%
x264 [info]: mb B I16..4: 0.1% 3.3% 0.2% B16..8: 47.1% 25.5% 4.4% direct: 8.4% skip:11.0% L0:47.2% L1:45.3% BI: 7.6%
x264 [info]: final ratefactor: 19.51
x264 [info]: 8x8 transform intra:90.8% inter:66.2%
x264 [info]: direct mvs spatial:100.0% temporal:0.0%
x264 [info]: coded y,uvDC,uvAC intra: 96.6% 89.2% 54.7% inter: 56.5% 52.7% 9.9%
x264 [info]: i16 v,h,dc,p: 36% 12% 8% 44%
x264 [info]: i8 v,h,dc,ddl,ddr,vr,hd,vl,hu: 7% 5% 6% 12% 17% 15% 14% 13% 12%
x264 [info]: i4 v,h,dc,ddl,ddr,vr,hd,vl,hu: 10% 5% 2% 10% 16% 17% 14% 13% 12%
x264 [info]: i8c dc,h,v,p: 37% 21% 19% 24%
x264 [info]: Weighted P-Frames: Y:6.9% UV:4.1%
x264 [info]: ref P L0: 38.0% 9.9% 19.1% 8.9% 7.2% 5.4% 4.9% 3.0% 3.0% 0.5% 0.0%
x264 [info]: ref B L0: 66.0% 14.2% 8.0% 4.3% 3.1% 2.6% 1.4% 0.5%
x264 [info]: ref B L1: 90.9% 9.1%
x264 [info]: kb/s:6796.00
x264 [total]: encoded 142644 frames, 3.14 fps, 6796.00 kb/s

Скриншоты

Яндекс.Метрика
Рейтинг@Mail.ru