Discovery: Америка с высоты / Discovery: Aerial America [01-03 из 03] /Тоби Бич [2013, Документальный, научно-познавательный, строительство,HDTVRip] от R.G.RealMT | Р1

 

Создавать темы 19-Ноя-2013 16:56

Русское название: Америка с высоты
Оригинальное название: Aerial America
Год выпуска: 2013
Жанр: Документальный, научно-познавательный, строительство
Выпущено: США, SNI/SI Networks L.L.C.
Продолжительность: 3 x ~ 00:42:30
Текст читал: Сергей Дуглов
Озвучено: Студия Кириллица
Перевод: Одноголосый закадровый
Режиссёр: Тоби Бич
Описание: Взлет на увлекательный полет по всей Америке. Эти эпические серии предлагает редкие проблески самых заветных достопримечательностей нашей страны, от захватывающих дух высот, до оживленных городских пейзажей, мы фиксируем историю и зрелища нашей удивительной стране, которая столь же разнообразна, как и люди, которые живут в ней.
Качество: HDTVRip
Формат:AVI
Видео кодек: XviD
Аудио кодек: MP3
Видео: 16:9, 2100 Кбит/сек, 720x400, 25,000 кадров/сек
Аудио: AC-3, 6 каналов, 256 Кбит/сек, 48,0 КГц

Список серий с описанием

Гавайи
Присоединяйтесь к нам на безостановочное путешествие по воздуху над самыми экзотическими и захватывающими местами нашей страны. От пышных зеленых до черных скал-песчаные пляжи, от древних руин к современной жизни города, открыть для себя потрясающие пейзажи и удивительные истории из восьми основных Гавайских островов, не касаясь земли.
Нью Йорк
Незабываемый полет над замечательным государством, одной богатой истории страны, которая началась задолго до европейских исследователей обнаружила ее могучие реки. Исследуйте удивительные красоты Нью-Йорка, от ревущего Ниагарского водопада, своих потрясающих пик и долин.
Вашингтон
Вашингтон является домом для некоторых из диких пространств Америки, а также его самых современных городов. Часто эти разрозненные пространства всего в нескольких милях друг от друга. Он является домом для высокотехнологичных отраслей Америке и старейших индейских племен.

MediaInfo

Общее
Полное имя : D:Америка с ВысотыАМЕРИКА С ВЫСОТЫ - ВАШИНГТОН.[R.G.RealMT].avi
Формат : AVI
Формат/Информация : Audio Video Interleave
Размер файла : 725 Мбайт
Продолжительность : 42 м.
Общий поток : 2366 Кбит/сек
Программа кодирования : VirtualDubMod 1.5.10.3 | www.virtualdub-fr.org || (build 2550/release)
Библиотека кодирования : VirtualDubMod build 2550/release
Видео
Идентификатор : 0
Формат : MPEG-4 Visual
Профиль формата : Advanced [email protected]
Параметр BVOP формата : 2
Параметр QPel формата : Нет
Параметр GMC формата : Без точки перехода
Параметр матрицы формата : Default (H.263)
Режим смешивания : Сжатый битовый поток
Идентификатор кодека : XVID
Идентификатор кодека/Подсказка : XviD
Продолжительность : 42 м.
Битрейт : 2100 Кбит/сек
Ширина : 720 пикселей
Высота : 400 пикселей
Соотношение сторон : 16:9
Частота кадров : 25,000 кадров/сек
Цветовое пространство : YUV
Субдискретизация насыщенности : 4:2:0
Битовая глубина : 8 бит
Тип развёртки : Прогрессивная
Метод сжатия : С потерями
Бит/(Пиксели*Кадры) : 0.292
Размер потока : 643 Мбайт (89%)
Библиотека кодирования : XviD 1.2.1 (UTC 2008-12-04)
Аудио
Идентификатор : 1
Формат : AC-3
Формат/Информация : Audio Coding 3
Расширение режима : CM (complete main)
Параметр Endianness формата : Big
Идентификатор кодека : 2000
Продолжительность : 42 м.
Вид битрейта : Постоянный
Битрейт : 256 Кбит/сек
Каналы : 6 каналов
Расположение каналов : Front: L C R, Side: L R, LFE
Частота : 48,0 КГц
Битовая глубина : 16 бит
Метод сжатия : С потерями
Размер потока : 78,4 Мбайт (11%)
Выравнивание : Разделение по промежуткам
Продолжительность промежутка : 40 мс. (1,00 видеокадр)
Время предзагрузки промежутка : 500 мс.

Скриншоты

Яндекс.Метрика
Рейтинг@Mail.ru