[ Сегодня на трекере фрилич! Идет свободное скачивание без начисления Download ]

Вишнёвый табак / Kirsitubakas (2014) DVDRip | [VO]

 

Создавать темы 30-Дек-2014 08:07

Вишнёвый табак / Kirsitubakas (2014) DVDRip- Страна: Эстония
Год выпуска: 2014
Жанр: Мелодрама
Описание фильма:
Семнадцатилетняя Лаура живет в маленьком городке и испытывает жуткую скуку. Ей действует на нервы мать, парни ее возраста кажутся девушке недалекими, а все развлечения — детскими. Однажды ее подружка Мерит уговаривает Лауру пойти в поход, организованный знатоком местной природы Йозепом. Поначалу между замкнутой девочкой и экстравагантным мужчиной складываются напряженные отношения. Но вскоре Лаура признается самой себе, что неотесанность Йозепа волнует ее…
Режиссер: Андрес Маймик, Катрин Маймик
Актеры: Маарья Якобсон, Вийу Маймик, Герд Раудсеп, Анне Рееманн
Продолжительность: 01:32:23
Качество видео: DVDRip
Перевод: Одноголосый закадровый
Язык: Русский
Озвучка: PashaUp
Язык субтитров: Русский
Вид субтитров: Вшитые,не отключаемые

Дата мировой премьеры: 9 июля 2014
Дата российской премьеры: -
Видеокодек: Xvid
Битрейт видео: 1882 kbps
Размер кадра: 720x304
Аудиокодек: MP3, 2 ch
Битрейт аудио: 224.00 kbps
Сэмпл: Ссылка

Mediainfo:

Общее
Полное имя                               : C:\Мои Файлы\Фильмы\Kirsitubakas.2014.L1.DVDRip.1400MB.avi
Формат                                   : AVI
Формат/Информация                        : Audio Video Interleave
Размер файла                             : 1,37 Гбайт
Продолжительность                        : 1 ч. 32 м.
Общий поток                              : 2117 Кбит/сек
Название фильма                          : Kirsitubakas.2014.L1.DVDRip.1400MB.uniongang.tv
Режиссёр                                 : TimeMashine
Программа кодирования                    : VirtualDubMod 1.5.10.3 | www.virtualdub-fr.org || (build 2550/release)
Правообладатель                          : UNIONGANG.TV
Видео
Идентификатор                            : 0
Формат                                   : MPEG-4 Visual
Профиль формата                          : Advanced [email protected]
Параметр BVOP формата                    : 3
Параметр QPel формата                    : Нет
Параметр GMC формата                     : Без точки перехода
Параметр матрицы формата                 : Выборочная
Идентификатор кодека                     : XVID
Идентификатор кодека/Подсказка           : XviD
Продолжительность                        : 1 ч. 32 м.
Битрейт                                  : 1883 Кбит/сек
Ширина                                   : 720 пикселей
Высота                                   : 304 пикселя
Соотношение сторон                       : 2,35:1
Частота кадров                           : 25,000 кадров/сек
Цветовое пространство                    : YUV
Субдискретизация насыщенности            : 4:2:0
Битовая глубина                          : 8 бит
Тип развёртки                            : Прогрессивная
Метод сжатия                             : С потерями
Бит/(Пиксели*Кадры)                      : 0.344
Размер потока                            : 1,22 Гбайт (89%)
Библиотека кодирования                   : XviD 1.2.1 (UTC 2008-12-04)
Аудио
Идентификатор                            : 1
Формат                                   : MPEG Audio
Версия формата                           : Version 1
Профиль формата                          : Layer 3
Режим                                    : Joint stereo
Идентификатор кодека                     : 55
Идентификатор кодека/Подсказка           : MP3
Продолжительность                        : 1 ч. 32 м.
Вид битрейта                             : Постоянный
Битрейт                                  : 224 Кбит/сек
Каналы                                   : 2 канала
Частота                                  : 48,0 КГц
Метод сжатия                             : С потерями
Размер потока                            : 148 Мбайт (11%)
Выравнивание                             : Соединение по промежуткам
Продолжительность промежутка             : 40  мс. (1,00 видеокадр)
Время предзагрузки промежутка            : 504  мс.
Скриншоты:
Время раздачи: 09.00-15:00. 20.00-24.00
Яндекс.Метрика
Рейтинг@Mail.ru