Невеста Шалтая Шармы / Humpty Sharma Ki Dulhania (2014) HDRip

 

Создавать темы 30-Дек-2014 07:33

Невеста Шалтая Шармы / Humpty Sharma Ki Dulhania (2014) HDRip- Страна : Индия
Год выпуска: 2014
Жанр: Драма, Мелодрама, Комедия
Описание фильма:
В детстве Ракеш Шарма, был маленьким и толстым мальчишкой. И все друзья называли его Шалтаем (Шалта́й-Болта́й от англ. Humpty Dumpty). Но годы идут, и мальчишка превращается в красивого стройного парня, покорителя женских сердец, а вот кличка Шалтай так и остается. Но это совсем не мешает ему любить фильмы с Шахрукх Кханом и Каджол, и мечтать о такой же любви как в "Непохищенной невесте", но он и не подозревает, что фантазии могут стать явью, как только он познакомится с Кавьей Пратап Сингх.
Режиссер: Шашанк Хайтан
Актеры: Алиа Бхатт, Варун Дхаван, Ангад Беди, Ашутош Рана, Адитья Шарма, Дипика Амин, Маназ Дамания
Продолжительность: 02:11:09
Качество видео: HDRip
Перевод: Многоголосый закадровый "ICG "

Дата мировой премьеры: 11 июля 2014
Дата российской премьеры: -
Видеокодек: Xvid
Битрейт видео: ~24.000 fps, 1696 kbps avg, 0.32 bit/pixel
Размер кадра: 720x304 (2.37:1)
Аудиокодек: AC3
Битрейт аудио: Audio #1: 48 kHz, Dolby Digital, 3/2 (L,C,R,l,r) + LFE ch, 448 kbps (Русский).
Audio #2: 48 kHz, Dolby Digital, 2/0 (L,R) ch, 224 kbps(Хинди)
Сэмпл: Ссылка

Mediainfo:

Общее
Полное имя                               : C:\Мои Файлы\Фильмы\Humpty.Sharma.Ki.Dulhania.2014.HDRip.Rus.Original.ICG.GF\Humpty.Sharma.Ki.Dulhania.2014.HDRip.Rus.Original.ICG.GF.avi
Формат                                   : AVI
Формат/Информация                        : Audio Video Interleave
Профиль формата                          : OpenDML
Размер файла                             : 2,18 Гбайт
Продолжительность                        : 2 ч. 11 м.
Общий поток                              : 2375 Кбит/сек
Программа кодирования                    : VirtualDubModRus 1.5.10.2 (build 2542/release)
Библиотека кодирования                   : VirtualDubMod build 2542/release
Видео
Идентификатор                            : 0
Формат                                   : MPEG-4 Visual
Профиль формата                          : Advanced [email protected]
Параметр BVOP формата                    : 1
Параметр QPel формата                    : Нет
Параметр GMC формата                     : Без точки перехода
Параметр матрицы формата                 : Default (MPEG)
Идентификатор кодека                     : XVID
Идентификатор кодека/Подсказка           : XviD
Продолжительность                        : 2 ч. 11 м.
Битрейт                                  : 1685 Кбит/сек
Ширина                                   : 720 пикселей
Высота                                   : 304 пикселя
Соотношение сторон                       : 2,35:1
Частота кадров                           : 24,000 кадра/сек
Цветовое пространство                    : YUV
Субдискретизация насыщенности            : 4:2:0
Битовая глубина                          : 8 бит
Тип развёртки                            : Прогрессивная
Метод сжатия                             : С потерями
Бит/(Пиксели*Кадры)                      : 0.321
Размер потока                            : 1,54 Гбайт (71%)
Библиотека кодирования                   : XviD 64
Аудио #1
Идентификатор                            : 1
Формат                                   : AC-3
Формат/Информация                        : Audio Coding 3
Расширение режима                        : CM (complete main)
Параметр Endianness формата              : Big
Идентификатор кодека                     : 2000
Продолжительность                        : 2 ч. 11 м.
Вид битрейта                             : Постоянный
Битрейт                                  : 448 Кбит/сек
Каналы                                   : 6 каналов
Расположение каналов                     : Front: L C R, Side: L R, LFE
Частота                                  : 48,0 КГц
Битовая глубина                          : 16 бит
Метод сжатия                             : С потерями
Задержка видео                           : 21 мс.
Размер потока                            : 420 Мбайт (19%)
Выравнивание                             : Разделение по промежуткам
Продолжительность промежутка             : 42  мс. (1,00 видеокадр)
Время предзагрузки промежутка            : 500  мс.
Аудио #2
Идентификатор                            : 2
Формат                                   : AC-3
Формат/Информация                        : Audio Coding 3
Расширение режима                        : CM (complete main)
Параметр Endianness формата              : Big
Идентификатор кодека                     : 2000
Продолжительность                        : 2 ч. 11 м.
Вид битрейта                             : Постоянный
Битрейт                                  : 224 Кбит/сек
Каналы                                   : 2 канала
Расположение каналов                     : Front: L R
Частота                                  : 48,0 КГц
Битовая глубина                          : 16 бит
Метод сжатия                             : С потерями
Размер потока                            : 210 Мбайт (9%)
Выравнивание                             : Соединение по промежуткам
Продолжительность промежутка             : 42  мс. (1,00 видеокадр)
Время предзагрузки промежутка            : 512  мс.
Скриншоты:
Время раздачи: 09.00-15:00. 20.00-24.00
Яндекс.Метрика
Рейтинг@Mail.ru