[ Сегодня на трекере фрилич! Идет свободное скачивание без начисления Download ]

Ложь во спасение / Приятная ложь / The Good Lie (Филипп Фалардо / Philippe Falardeau) [2014 г., драма, HDRip] VO

 

Создавать темы 30-Дек-2014 05:41

-Ложь во спасение / Приятная ложь / The Good Lie-- Производство: Кения, Индия, США
Год выпуска: 2014 г.
Жанр: драма
Продолжительность: 01:50:00
Мировая премьера: 7 сентября 2014
Перевод: Любительский (одноголосый, закадровый) [П. Морозов]
Режиссер: Филипп Фалардо / Philippe Falardeau-В ролях: Риз Уизерспун, Арнольд Окенг, Хер Дуани, Эммануэль Джал, Кори Столл, Куот Виль, Феми Огунс, Сара Бэйкер, Линдси Гаррет-Описание: Военные беженцы из Судана получили разрешение на иммиграцию в Канзас-Сити, спустя 13 лет после того, как попали в лагерь беженцев, спасаясь от пуль солдат. Здесь им предстоит начать жизнь заново, найти работу, преодолевать трудности. "Потерянные мальчики Судана" - так назвали этих детей гражданской войны, разразившейся в Судане в 1983 году, когда сжигались целые деревни, а бомбы летели на мирные селения, уничтожая детей, стариков, женщин...-
Качество видео: HDRip
Контейнер: AVI
Видео кодек: XviD
Аудио кодек: AC3
Видео: 720x400 (1.80:1), 23.976 fps, XviD MPEG-4 ~1498 kbps avg, 0.22 bit/pixel
Аудио: 48 kHz, AC3 Dolby Digital, 2/0 (L,R) ch, ~192 kbps
Cубтитры: отсутствуют

Media Info

Общее
Полное имя : E:\Фильмы\Ложь во спасение .2014.avi
Формат : AVI
Формат/Информация : Audio Video Interleave
Размер файла : 1,31 Гбайт
Продолжительность : 1 ч. 50 м.
Общий поток : 1700 Кбит/сек
Программа кодирования : VirtualDubMod 1.5.10.2 (build 2540/release)
Библиотека кодирования : VirtualDubMod build 2540/release
Видео
Идентификатор : 0
Формат : MPEG-4 Visual
Профиль формата : Advanced [email protected]
Параметр BVOP формата : 2
Параметр QPel формата : Нет
Параметр GMC формата : Без точки перехода
Параметр матрицы формата : Default (H.263)
Режим смешивания : Сжатый битовый поток
Идентификатор кодека : XVID
Идентификатор кодека/Подсказка : XviD
Продолжительность : 1 ч. 50 м.
Битрейт : 1499 Кбит/сек
Ширина : 720 пикселей
Высота : 400 пикселей
Соотношение сторон : 16:9
Частота кадров : 23,976 кадра/сек
Цветовое пространство : YUV
Субдискретизация насыщенности : 4:2:0
Битовая глубина : 8 бит
Тип развёртки : Прогрессивная
Метод сжатия : С потерями
Бит/(Пиксели*Кадры) : 0.217
Размер потока : 1,15 Гбайт (88%)
Библиотека кодирования : XviD 64
Аудио
Идентификатор : 1
Формат : AC-3
Формат/Информация : Audio Coding 3
Расширение режима : CM (complete main)
Параметр Endianness формата : Big
Идентификатор кодека : 2000
Продолжительность : 1 ч. 50 м.
Вид битрейта : Постоянный
Битрейт : 192 Кбит/сек
Каналы : 2 канала
Расположение каналов : Front: L R
Частота : 48,0 КГц
Битовая глубина : 16 бит
Метод сжатия : С потерями
Размер потока : 151 Мбайт (11%)
Выравнивание : Разделение по промежуткам
Продолжительность промежутка : 42 мс. (1,00 видеокадр)
Время предзагрузки промежутка : 500 мс.
Скриншоты
Яндекс.Метрика
Рейтинг@Mail.ru