Взять живым или мертвым / Wanted: Dead or Alive (Гэри Шерман / Gary Sherman) [1986 г., Боевик, Триллер, DVDRip-AVC] AVO (Михалёв, Гаврилов, Завгородний) + MVO + Original (Eng)

 

Создавать темы 30-Дек-2014 05:29

Взять живым или мертвым / Wanted: Dead or Alive
Год выпуска: 1986
Производство: США
Жанр: Боевик, Триллер
Продолжительность: 01:46:30
Перевод: Авторский (одноголосый, закадровый) Алексей Михалёв, Андрей Гаврилов
Перевод: Авторский (одноголосый, закадровый) Владимир Завгородний(ненормативная лексика)
Перевод: Профессиональный (многоголосый, закадровый)
Оригинальный аудиопоток: английский
Субтитры: отсутствуют
Режиссер: Гэри Шерман / Gary Sherman
В ролях: Рутгер Хауэр, Джин Симмонс, Роберт Гийом, Мел Харрис, Уильям Расс, Сьюзен МакДональд, Джерри Хардин, Хью Гиллам, Роберт Харпер, Эли Данкер
Описание: Бывший агент ЦРУ Ник Рэндолл зарабатывает на жизнь, охотясь за преступниками. Он суперпрофессионал и всегда работает один. В Лос-Анджелесе появляется «старый знакомый» Ника международный террорист Аль-Рахим, вынашивающий дьявольский план — превратить город в царство террора и смерти.
Он начинает действовать, взорвав кинотеатр и похоронив под его руинами 138 ни в чем не повинных людей. На следующее утро после взрыва ЦРУ предлагает Нику 50 тысяч долларов за поимку террориста. Ник соглашается, не зная, что агенты ЦРУ решили сделать из него наживку для Аль-Рахима.
И когда от рук террориста погибают два лучших друга Ника, он «забывает», что получит 50 тысяч долларов, лишь в том случае, если поймает Аль-Рахима живым. Он нужен Нику только мертвым….
, КиноПоиск
Качество видео: DVDRip-AVC
Контейнер: MKV
Видео кодек: H.264
Аудио кодек: AC3
Видео: 720x392, 23.976fps, 1346Kbps, 0.199 bt/px
Аудио : AC-3, 192 Kbps, 2 ch, 48.0 KHz Rus Михалёв
Аудио : AC-3, 384 Kbps, 6 ch, 48.0 KHz Rus Гаврилов
Аудио : AC-3, 448 Kbps, 6 ch, 48.0 KHz Rus Завгородний
Аудио : AC-3, 384 Kbps, 6 ch, 48.0 KHz Rus MVO
Аудио : AC-3, 448 Kbps, 6 ch, 48.0 KHz Eng Original

Доп. информация

Перевод: Авторский Андрей Гаврилов спасибо budulai-8
Перевод: Авторский Владимир Завгородний спасибо ZEWS13

Media Info

G:\загрузки\Wanted_Dead_or_Alive_[Pirat.ca].torrent.mkv
General
Unique ID : 238689711392258705085058875036647343263 (0xB391F75CBBC1F19F99F8F33A9A54C49F)
Complete name : G:\загрузки\Wanted_Dead_or_Alive_[Pirat.ca].torrent.mkv
Format : Matroska
Format version : Version 1
File size : 2.43 GiB
Duration : 1h 46mn
Overall bit rate : 3 267 Kbps
Encoded date : UTC 2014-12-29 12:39:21
Writing application : mkvmerge v2.5.3 ('Boogie') built on Mar 7 2009 15:00:41
Writing library : libebml v0.7.7 + libmatroska v0.8.1
Video #1
ID : 1
Format : AVC
Format/Info : Advanced Video Codec
Format profile : [email protected]
Format settings, CABAC : Yes
Format settings, ReFrames : 9 frames
Codec ID : V_MPEG4/ISO/AVC
Duration : 1h 46mn
Bit rate : 1 346 Kbps
Width : 720 pixels
Height : 392 pixels
Display aspect ratio : 1.85:1
Frame rate mode : Constant
Frame rate : 23.976 fps
Color space : YUV
Chroma subsampling : 4:2:0
Bit depth : 8 bits
Scan type : Progressive
Bits/(Pixel*Frame) : 0.199
Stream size : 1.00 GiB (41%)
Writing library : x264 core 130 r2273 b3065e6
Encoding settings : cabac=1 / ref=9 / deblock=1:-3:-3 / analyse=0x3:0x133 / me=umh / subme=11 / psy=1 / psy_rd=1.00:0.15 / mixed_ref=1 / me_range=24 / chroma_me=1 / trellis=2 / 8x8dct=1 / cqm=0 / deadzone=21,11 / fast_pskip=1 / chroma_qp_offset=-3 / threads=6 / lookahead_threads=1 / sliced_threads=0 / nr=0 / decimate=1 / interlaced=0 / bluray_compat=0 / constrained_intra=0 / bframes=8 / b_pyramid=2 / b_adapt=2 / b_bias=0 / direct=1 / weightb=1 / open_gop=0 / weightp=2 / keyint=250 / keyint_min=23 / scenecut=40 / intra_refresh=0 / rc_lookahead=50 / rc=crf / mbtree=1 / crf=18.0 / qcomp=0.60 / qpmin=0 / qpmax=51 / qpstep=4 / ip_ratio=1.40 / aq=1:1.00
Language : English
Default : Yes
Forced : No
Audio #2
ID : 2
Format : AC-3
Format/Info : Audio Coding 3
Mode extension : CM (complete main)
Format settings, Endianness : Big
Codec ID : A_AC3
Duration : 1h 46mn
Bit rate mode : Constant
Bit rate : 192 Kbps
Channel(s) : 2 channels
Channel positions : Front: L R
Sampling rate : 48.0 KHz
Bit depth : 16 bits
Compression mode : Lossy
Stream size : 146 MiB (6%)
Title : AVO Михалёв
Language : Russian
Default : Yes
Forced : No
Audio #3
ID : 3
Format : AC-3
Format/Info : Audio Coding 3
Mode extension : CM (complete main)
Format settings, Endianness : Big
Codec ID : A_AC3
Duration : 1h 46mn
Bit rate mode : Constant
Bit rate : 384 Kbps
Channel(s) : 6 channels
Channel positions : Front: L C R, Side: L R, LFE
Sampling rate : 48.0 KHz
Bit depth : 16 bits
Compression mode : Lossy
Stream size : 293 MiB (12%)
Title : AVO Гаврилов
Language : Russian
Default : No
Forced : No
Audio #4
ID : 4
Format : AC-3
Format/Info : Audio Coding 3
Mode extension : CM (complete main)
Format settings, Endianness : Big
Codec ID : A_AC3
Duration : 1h 46mn
Bit rate mode : Constant
Bit rate : 448 Kbps
Channel(s) : 6 channels
Channel positions : Front: L C R, Side: L R, LFE
Sampling rate : 48.0 KHz
Bit depth : 16 bits
Compression mode : Lossy
Stream size : 341 MiB (14%)
Title : AVO Завгородний
Language : Russian
Default : No
Forced : No
Audio #5
ID : 5
Format : AC-3
Format/Info : Audio Coding 3
Mode extension : CM (complete main)
Format settings, Endianness : Big
Codec ID : A_AC3
Duration : 1h 46mn
Bit rate mode : Constant
Bit rate : 384 Kbps
Channel(s) : 6 channels
Channel positions : Front: L C R, Side: L R, LFE
Sampling rate : 48.0 KHz
Bit depth : 16 bits
Compression mode : Lossy
Stream size : 293 MiB (12%)
Title : MVO
Language : Russian
Default : No
Forced : No
Audio #6
ID : 6
Format : AC-3
Format/Info : Audio Coding 3
Mode extension : CM (complete main)
Format settings, Endianness : Big
Codec ID : A_AC3
Duration : 1h 46mn
Bit rate mode : Constant
Bit rate : 448 Kbps
Channel(s) : 6 channels
Channel positions : Front: L C R, Side: L R, LFE
Sampling rate : 48.0 KHz
Bit depth : 16 bits
Compression mode : Lossy
Stream size : 341 MiB (14%)
Language : English
Default : No
Forced : No

log x.264

x264 [info]: frame I:1033  Avg QP:16.12  size: 43521
x264 [info]: frame P:33649 Avg QP:18.82 size: 17191
x264 [info]: frame B:118525 Avg QP:22.42 size: 4220
x264 [info]: consecutive B-frames: 1.4% 1.0% 7.7% 29.7% 24.4% 31.5% 3.1% 0.6% 0.5%
x264 [info]: mb I I16..4: 2.1% 86.1% 11.8%
x264 [info]: mb P I16..4: 0.4% 15.1% 1.2% P16..4: 29.3% 34.3% 14.7% 2.4% 0.3% skip: 2.2%
x264 [info]: mb B I16..4: 0.0% 1.7% 0.1% B16..8: 34.4% 18.1% 2.4% direct: 6.4% skip:36.9% L0:37.3% L1:42.7% BI:20.0%
x264 [info]: 8x8 transform intra:90.6% inter:59.4%
x264 [info]: coded y,uvDC,uvAC intra: 95.2% 73.4% 35.5% inter: 27.8% 18.0% 2.6%
x264 [info]: i16 v,h,dc,p: 31% 15% 4% 50%
x264 [info]: i8 v,h,dc,ddl,ddr,vr,hd,vl,hu: 16% 11% 6% 8% 10% 11% 12% 11% 14%
x264 [info]: i4 v,h,dc,ddl,ddr,vr,hd,vl,hu: 17% 13% 3% 7% 13% 13% 13% 9% 12%
x264 [info]: i8c dc,h,v,p: 26% 30% 24% 20%
x264 [info]: Weighted P-Frames: Y:5.7% UV:2.1%
x264 [info]: ref P L0: 38.2% 10.9% 22.2% 6.2% 6.9% 4.2% 5.1% 2.5% 3.3% 0.6% 0.0%
x264 [info]: ref B L0: 82.4% 10.0% 2.9% 1.6% 1.1% 1.0% 0.6% 0.4%
x264 [info]: ref B L1: 96.4% 3.6%
x264 [info]: kb/s:1406.68
x264 [total]: encoded 153207 frames, 11.97 fps, 1406.68 kb/s

Скриншоты

Яндекс.Метрика
Рейтинг@Mail.ru