[ Сегодня на трекере фрилич! Идет свободное скачивание без начисления Download ]

Пингвины Мадагаскара / Penguins of Madagascar (Эрик Дарнелл / Eric Darnell, Саймон Дж. Смит / Simon J. Smith) [2014 г., мультфильм, комедия, приключения, семейный, WEBRip, 720p] Dub (Чистый звук) + Original (Eng)

 

Создавать темы 30-Дек-2014 05:25

-Пингвины Мадагаскара / Penguins of Madagascar- Производство: США, DreamWorks Animation, Pacific Data Images (PDI)
Год выпуска: 2014 г.
Жанр: мультфильм, комедия, приключения, семейный
Продолжительность: 01:28:15
Мировая премьера: 8 ноября 2014
Российская премьера: 27 ноября 2014, «Двадцатый Век Фокс СНГ»
Дата выхода DVD: 5 марта 2015, «Двадцатый Век Фокс СНГ»
Дата выхода Blu-Ray: 5 марта 2015, «Двадцатый Век Фокс СНГ»
Перевод: Профессиональный (полное дублирование) [Чистый звук]
Оригинальный аудиопоток: английский-Режиссер: Эрик Дарнелл / Eric Darnell, Саймон Дж. Смит / Simon J. Smith
В ролях: Том МакГрат, Крис Миллер, Кристофер Найтс, Бенедикт Камбербэтч, Петер Стормаре, Джон Малкович, Кен Жонг, Аннет Махендру-Описание: Четвёрка пингвинов-шпионов — Шкипер, Ковальски, Рико и Прапор — объединяется с командой «Северный ветер», помогающей беззащитным животным. Им предстоит остановить злобного осьминога, доктора Октавиуса Брайна, желающего уничтожить этот мир…- -Качество видео: WEBRip
Контейнер: MKV
Стандарт разрешения: 720p
Видео кодек: MPEG-4 AVC
Аудио кодек: AC3
Видео: 1280x720 (16:9), 3 065 Kbps, 25 fps
Аудио: 128 Kbps, 2 ch, 48.0 KHz - Rus
Аудио #2: 224 Kbps, 2 ch, 48.0 KHz - Eng
Примечание: присутствуют вшитые китайские субтитры!

Media Info

General
Unique ID : 189254993562619403475973607785194582791 (0x8E612F98A166D3D988F1259C327FF307)
Complete name : D:\Penguins.of.Madagascar_(2014)_WEBRip.720p.mkv
Format : Matroska
Format version : Version 2
File size : 2.15 GiB
Duration : 1h 28mn
Overall bit rate : 3 486 Kbps
Movie name : Penguins of Madagascar 2014
Encoded date : UTC 2014-12-28 19:09:11
Writing application : mkvmerge v5.8.0 ('No Sleep / Pillow') built on Sep 2 2012 15:37:04
Writing library : libebml v1.2.3 + libmatroska v1.3.0
Video
ID : 1
Format : AVC
Format/Info : Advanced Video Codec
Format profile : [email protected]
Format settings, CABAC : Yes
Format settings, ReFrames : 4 frames
Codec ID : V_MPEG4/ISO/AVC
Duration : 1h 28mn
Bit rate : 3 065 Kbps
Width : 1 280 pixels
Height : 720 pixels
Display aspect ratio : 16:9
Frame rate mode : Constant
Frame rate : 25.000 fps
Color space : YUV
Chroma subsampling : 4:2:0
Bit depth : 8 bits
Scan type : Progressive
Bits/(Pixel*Frame) : 0.133
Stream size : 1.89 GiB (88%)
Writing library : x264 core 142 r2491M 24e4fed
Encoding settings : cabac=1 / ref=4 / deblock=1:0:0 / analyse=0x3:0x113 / me=umh / subme=7 / psy=1 / psy_rd=1.00:0.15 / mixed_ref=1 / me_range=16 / chroma_me=1 / trellis=1 / 8x8dct=1 / cqm=0 / deadzone=21,11 / fast_pskip=1 / chroma_qp_offset=-3 / threads=40 / lookahead_threads=8 / sliced_threads=0 / nr=0 / decimate=1 / interlaced=0 / bluray_compat=0 / constrained_intra=0 / bframes=3 / b_pyramid=2 / b_adapt=2 / b_bias=0 / direct=3 / weightb=1 / open_gop=0 / weightp=2 / keyint=250 / keyint_min=25 / scenecut=40 / intra_refresh=0 / rc_lookahead=50 / rc=crf / mbtree=1 / crf=18.0 / qcomp=0.60 / qpmin=0 / qpmax=69 / qpstep=4 / ip_ratio=1.40 / aq=1:1.00
Default : Yes
Forced : No
Audio #1
ID : 2
Format : AC-3
Format/Info : Audio Coding 3
Mode extension : CM (complete main)
Format settings, Endianness : Big
Codec ID : A_AC3
Duration : 1h 28mn
Bit rate mode : Constant
Bit rate : 128 Kbps
Channel(s) : 2 channels
Channel positions : Front: L R
Sampling rate : 48.0 KHz
Bit depth : 16 bits
Compression mode : Lossy
Stream size : 80.8 MiB (4%)
Title : [Line]
Language : Russian
Default : Yes
Forced : No
Audio #2
ID : 3
Format : AC-3
Format/Info : Audio Coding 3
Mode extension : CM (complete main)
Format settings, Endianness : Big
Codec ID : A_AC3
Duration : 1h 28mn
Bit rate mode : Constant
Bit rate : 224 Kbps
Channel(s) : 2 channels
Channel positions : Front: L R
Sampling rate : 48.0 KHz
Bit depth : 16 bits
Compression mode : Lossy
Stream size : 141 MiB (6%)
Language : English
Default : No
Forced : No

Скриншоты

Яндекс.Метрика
Рейтинг@Mail.ru