Маша и Медведь. Машкины страшилки / 1-2 серии (Олег Ужинов, Денис Червяцов, Олег Кузовков) [2014 г., мультфильм, короткометражка, комедия, семейный, DVDRip]

 

Создавать темы 29-Дек-2014 16:40

-Маша и Медведь. Машкины страшилки1-2 серии-- Производство: Россия
Год выпуска: 2014 г.
Жанр: мультфильм, короткометражка, комедия, семейный
Продолжительность: 2 х 00:05:44-Режиссер: Олег Ужинов, Денис Червяцов, Олег Кузовков-В ролях: Олег Ужинов, Денис Червяцов, Олег Кузовков-Описание: Новый проект студии "Анимаккорд" - "Машкины страшилки"... Все дети боятся темноты. Маша раньше тоже так её боялась, что приходилось ей по ночам с фонариком сидеть! Но однажды Маша придумала сказочку про маленького лесного жучка, который тоже боялся темноты... Трепещите! Маша взялась за новый жанр - теперь она рассказывает страшилки!-Качество видео: DVDRip
Контейнер: AVI
Видео кодек: XviD
Аудио кодек: AC3
Видео: 720x400, 25.000 fps, 2150 kbps avg, 0.299 bit/pixel
Аудио: 48 kHz, AC3 Dolby Digital, 2 ch, ~192 kbps
Cубтитры: отсутствуют-

Media Info

Общее
Полное имя : C:\Users\Ромик\Pictures\Маша и Медведь. Машкины страшилки\Mashkiny.Strashylki.2014.[pirat.ca]\01. Про жучка.[pirat.ca].avi
Формат : AVI
Формат/Информация : Audio Video Interleave
Размер файла : 96,7 Мбайт
Продолжительность : 5 м. 44 с.
Общий поток : 2352 Кбит/сек
Программа кодирования : VirtualDubMod 1.5.10.2 (build 2540/release)
Примечание : http://pirat.ca
Видео
Идентификатор : 0
Формат : MPEG-4 Visual
Профиль формата : Advanced [email protected]
Параметр BVOP формата : 2
Параметр QPel формата : Нет
Параметр GMC формата : Без точки перехода
Параметр матрицы формата : Default (MPEG)
Идентификатор кодека : XVID
Идентификатор кодека/Подсказка : XviD
Продолжительность : 5 м. 44 с.
Битрейт : 2150 Кбит/сек
Ширина : 720 пикселей
Высота : 400 пикселей
Соотношение сторон : 16:9
Частота кадров : 25,000 кадров/сек
Цветовое пространство : YUV
Субдискретизация насыщенности : 4:2:0
Битовая глубина : 8 бит
Тип развёртки : Прогрессивная
Метод сжатия : С потерями
Бит/(Пиксели*Кадры) : 0.299
Размер потока : 88,4 Мбайт (91%)
Библиотека кодирования : XviD 1.2.0.dev47 (UTC 2006-11-01)
Аудио
Идентификатор : 1
Формат : AC-3
Формат/Информация : Audio Coding 3
Расширение режима : CM (complete main)
Параметр Endianness формата : Big
Идентификатор кодека : 2000
Продолжительность : 5 м. 44 с.
Вид битрейта : Постоянный
Битрейт : 192 Кбит/сек
Каналы : 2 канала
Расположение каналов : Front: L R
Частота : 48,0 КГц
Битовая глубина : 16 бит
Метод сжатия : С потерями
Размер потока : 7,89 Мбайт (8%)
Выравнивание : Разделение по промежуткам
Продолжительность промежутка : 40 мс. (1,00 видеокадр)
Время предзагрузки промежутка : 500 мс.
-

Скриншот c названием фильма

-

Скриншоты

-
Яндекс.Метрика
Рейтинг@Mail.ru