[ Сегодня на трекере фрилич! Идет свободное скачивание без начисления Download ]

Пингвины Мадагаскара / Penguins of Madagascar (Эрик Дарнелл / Eric Darnell, Саймон Дж. Смит / Simon J. Smith) [2014 г., мультфильм, комедия, приключения, семейный, WEBRip] Dub (Чистый звук)

 

Создавать темы 29-Дек-2014 16:16

-Пингвины Мадагаскара / Penguins of Madagascar- Производство: США, DreamWorks Animation, Pacific Data Images (PDI)
Год выпуска: 2014 г.
Жанр: мультфильм, комедия, приключения, семейный
Продолжительность: 01:28:14
Мировая премьера: 8 ноября 2014
Российская премьера: 27 ноября 2014, «Двадцатый Век Фокс СНГ»
Дата выхода DVD: 5 марта 2015, «Двадцатый Век Фокс СНГ»
Дата выхода Blu-Ray: 5 марта 2015, «Двадцатый Век Фокс СНГ»
Перевод: Профессиональный (полное дублирование) [Чистый звук]-Режиссер: Эрик Дарнелл / Eric Darnell, Саймон Дж. Смит / Simon J. Smith
В ролях: Том МакГрат, Крис Миллер, Кристофер Найтс, Бенедикт Камбербэтч, Петер Стормаре, Джон Малкович, Кен Жонг, Аннет Махендру-Описание: Четвёрка пингвинов-шпионов — Шкипер, Ковальски, Рико и Прапор — объединяется с командой «Северный ветер», помогающей беззащитным животным. Им предстоит остановить злобного осьминога, доктора Октавиуса Брайна, желающего уничтожить этот мир…- -Качество видео: WEBRip
Контейнер: AVI
Видео кодек: XviD
Аудио кодек: AC3
Видео: 720x400 (1.80:1), 25 fps, XviD build 50 ~2080 kbps avg, 0.29 bit/pixel
Аудио: 48 kHz, AC3 Dolby Digital, 2/0 (L,R) ch, ~128 kbps
Примечание: присутствуют вшитые китайские субтитры!

Media Info

General
Complete name : D:\Pingviny.s.Madagaskara.2014.D.WEBRp.1400MB.avi
Format : AVI
Format/Info : Audio Video Interleave
File size : 1.37 GiB
Duration : 1h 28mn
Overall bit rate : 2 219 Kbps
Writing application : VirtualDubMod 1.5.10.2 (build 2540/release)
Writing library : VirtualDubMod build 2540/release
Video
ID : 0
Format : MPEG-4 Visual
Format profile : Advanced [email protected]
Format settings, BVOP : 2
Format settings, QPel : No
Format settings, GMC : No warppoints
Format settings, Matrix : Default (MPEG)
Codec ID : XVID
Codec ID/Hint : XviD
Duration : 1h 28mn
Bit rate : 2 081 Kbps
Width : 720 pixels
Height : 400 pixels
Display aspect ratio : 16:9
Frame rate : 25.000 fps
Color space : YUV
Chroma subsampling : 4:2:0
Bit depth : 8 bits
Scan type : Progressive
Compression mode : Lossy
Bits/(Pixel*Frame) : 0.289
Stream size : 1.28 GiB (94%)
Writing library : XviD 1.2.1 (UTC 2008-12-04)
Audio
ID : 1
Format : AC-3
Format/Info : Audio Coding 3
Mode extension : CM (complete main)
Format settings, Endianness : Big
Codec ID : 2000
Duration : 1h 28mn
Bit rate mode : Constant
Bit rate : 128 Kbps
Channel(s) : 2 channels
Channel positions : Front: L R
Sampling rate : 48.0 KHz
Bit depth : 16 bits
Compression mode : Lossy
Stream size : 80.8 MiB (6%)
Alignment : Split accross interleaves
Interleave, duration : 40 ms (1.00 video frame)
Interleave, preload duratio : 500 ms

Скриншоты

Яндекс.Метрика
Рейтинг@Mail.ru