[ Сегодня на трекере фрилич! Идет свободное скачивание без начисления Download ]

Библиотекари / The Librarians (Сезон 1 / Серии: 2 из 10 серии) (Дин Девлин / Dean Devlin ...) [2014 г., приключения, ..., WEB-DLRip] MVO (LostFilm) [обновляемая]

 

Создавать темы 29-Дек-2014 05:11

Библиотекари / The Librarians
«Filing evil under history»
- Русское название: Библиотекари
Оригинальное название: The Librarians
Страна: США
Год выпуска: 2014
Жанр: приключения, ...-Озвучка: Студия
Перевод: Многоголосый закадровый, профессиональный-Режиссер: Дин Девлин / Dean Devlin, Джонатан Фрейкс / Jonathan Frakes
Актеры: Ноа Уайли, Джон Ларрокетт, Ребекка Ромейн, Кристиан Кейн, Джон Ким, Линди Бут, Лесли-Энн Брандт, Джейн Куртин, Боб Ньюхарт, Бен Эндрюс ...-Описание фильма:
Сериал снят по мотивам серии фильмов «Библиотекарь», повествующей о Флинне Карсене, который узнает, что его миссия заключается в том, чтобы охранять магические артефакты в старинной библиотеке. Он вербует четырёх обычных людей, собирая команду по борьбе с тёмной магией и древними заговорами. Под его руководством они научатся самозащите и боевым приемам, чтобы отправиться на поиски загадочных артефактов и спасти их от злодеев, желающих захватить мир.-Премьера (мир): 7 декабря 2014, ...-Сезон: 1
Серии: 2 из 10 серий
Продолжительность: ~ 00:57:00 серия-Качество видео: WEB-DLRip
Контейнер: AVI
Видео кодек: XviD
Аудио кодек: MP3
Видео: MPEG-4 Visual at 1914 Кбит/сек: 720 x 400 (1.800) at 23.976 fps, 0.28 Бит/Пиксели
Аудио Rus: MPEG Audio at 192 Кбит/сек: 2 канала, 48,0 КГц |LostFilm|
Cубтитры: отсутствуют
- -

Список серий:

  • И корона короля Артура (And the Crown of King Arthur)
  • И меч в камне (And the Sword in the Stone)


  • Библиотекари и рога Дилеммы (And the Horns of a Dilemma)

  • (And Santa's Midnight Run)

  • (And the Apple of Discord)

  • (And the Fables of Doom)

  • (And the Rule of Three)

  • (And the Heart of Darkness)

  • (And the City of Light)

  • (And the Loom of Fate)
-

MediaInfo:

Общее
Полное имя : E:\_Сериалы\_Сериалы\Библиотекари\The Librarians s01.LostFilm\The.Librarians.S01E01.rus.LostFilm.TV.avi
Формат : AVI
Формат/Информация : Audio Video Interleave
Размер файла : 877 Мбайт
Продолжительность : 57 м.
Режим общего битрейта : Переменный
Общий поток : 2117 Кбит/сек
Программа кодирования : Nandub v1.0rc2
Библиотека кодирования : Nandub build 1853/release
Видео
Идентификатор : 0
Формат : MPEG-4 Visual
Профиль формата : Advanced [email protected]
Параметр BVOP формата : Нет
Параметр QPel формата : Нет
Параметр GMC формата : Без точки перехода
Параметр матрицы формата : Default (H.263)
Идентификатор кодека : XVID
Идентификатор кодека/Подсказка : XviD
Продолжительность : 57 м.
Битрейт : 1914 Кбит/сек
Ширина : 720 пикселей
Высота : 400 пикселей
Соотношение сторон : 16:9
Частота кадров : 23,976 кадра/сек
Цветовое пространство : YUV
Субдискретизация насыщенности : 4:2:0
Битовая глубина : 8 бит
Тип развёртки : Прогрессивная
Метод сжатия : С потерями
Бит/(Пиксели*Кадры) : 0.277
Размер потока : 793 Мбайт (90%)
Библиотека кодирования : XviD 1.2.1 (UTC 2008-12-04)
Аудио
Идентификатор : 1
Формат : MPEG Audio
Версия формата : Version 1
Профиль формата : Layer 3
Режим : Joint stereo
Расширение режима : MS Stereo
Идентификатор кодека : 55
Идентификатор кодека/Подсказка : MP3
Продолжительность : 57 м.
Вид битрейта : Переменный
Битрейт : 192 Кбит/сек
Каналы : 2 канала
Частота : 48,0 КГц
Метод сжатия : С потерями
Размер потока : 78,5 Мбайт (9%)
Выравнивание : Соединение по промежуткам
Продолжительность промежутка : 24 мс. (0,58 видеокадр)
Время предзагрузки промежутка : 478 мс.
Библиотека кодирования : LAME3.97b
Настройки программы : -m j -V 4 -q 3 -lowpass 18.6 --abr 192
-

Скриншот c названием фильма

-Скриншоты:
-

Еще

-

Внимание! Раздача ведётся путём добавления новых серий!

Раздача ведётся путём добавления новых серий; при каждом добавлении создаётся новый торрент.
Чтобы начать докачку новой серии, пользователям необходимо сделать следующее:
1. остановить скачивание,
2. удалить старый торрент у себя из клиента (старые серии удалять не надо),
3. скачать новый торрент и запустить его у себя в клиенте вместо старого, при этом указать клиенту путь в старую папку, куда и должно происходить скачивание новых серий.
Ваш клиент при этом должен произвести хеширование (проверку) старой папки (если не производит сам - помогите ему сделать это), и будет докачивать только те серии которых у вас ещё нет. Старые серии при этом не удаляются, а продолжают раздаваться!
Eсли вы уже удалили старые серии, то предотвратить повторную закачку старых серий можно, отжав галочку в соответствующих местах при запуске нового торрента. По возможности, желательно не удалять старые серии как можно дольше, чтобы релизёр не столько продолжал раздавать старые серии, а смог сконцентрироваться на новых.
Совет для тех, кто не хочет ждать перехеширования:
Создайте ещё одну папку рядом с папкой сериала (рядом, а не в ней!!!). Каждую новую серию после удачной загрузки копируйте в новую папку так чтобы ваша основная папка всегда была пуста. Когда ваш новый торрент предложит вам закачать все файлы, выберете только последнюю. Для сидирования же укажите адрес новой папки.
Как закачать отдельный файл из торрента или докачать ранее пропущенные файлы торрента!
-

Как закачать отдельный файл

1. Открыть торрент
2. Снять галки с тех файлов торрента, которые мы не хотим закачивать. Оставляем только на нужных нам файлах (файле).
3. Нажать О.К.
В клиенте utorrent
Инструкция
1) Открыть торрент

2) Снять галки с тех файлов торрента, которые мы не хотим закачивать:
* либо вручную, снимая с каждого файла галку( скрин №1)
* либо, нажав кнопку "Снять метки (Select None)", сняв сразу со всех файлов(скрин №2)
№1

№2

Оставляем только на нужных нам файлах (файле).

3)Нажать О.К
-Добавлена вторая серия первого сезона
Яндекс.Метрика
Рейтинг@Mail.ru