[ Сегодня на трекере фрилич! Идет свободное скачивание без начисления Download ]

Орудия смерти: Город костей / The Mortal Instruments: City of Bones (2013) HDRip

 

Создавать темы 19-Ноя-2013 12:56

-Орудия смерти: Город костей / The Mortal Instruments: City of Bones (2013) HDRip«Миры столкнутся»- Год выпуска: 2013
Производство: Канада, Германия / Constantin Film Produktion GmbH, Sony Pictures Entertainment (SPE), Unique Features
Жанр: Фэнтези, Боевик, Драма
Перевод: Дублированный (лицензия)
Субтитры: Отсутствуют
Дата мировой премьеры: 12 августа 2013
Дата российской премьеры: 22 августа 2013, «Централ Партнершип»
Дата выхода DVD релиза: 29 августа 2013, «Интерфильм», «Централ Партнершип»
Режиссер: Харольд Цварт
Продюсер: Дон Кармоди, Роберт Кульцер, Хартли Горенштейн
Актеры: Джейми Кэмпбелл Бауэр, Лили Коллинз, Кевин Дюранд, Джаред Харрис, Лина Хэди, Роберт Мэйллет, ККХ Паундер, Джонатан Риз Мейерс, Роберт Шихан, Кевин Зегерс
Описание фильма:
Клэри Фрэй всегда считала себя самой обыкновенной девушкой, пока не выяснилось, что она — потомок древнего рода Сумеречных Охотников, тайной касты воинов-полуангелов, защищающих наш мир от демонов. Когда мама Клэри исчезает, девушка объединяется с Сумеречными охотниками, чтобы спасти ее. Так начинается ее опасное знакомство с иной реальностью, в которой существуют демоны, маги, вампиры, оборотни и другие смертоносные существа.

Продолжительность: 02:09:55
Качество видео: HDRip
Видеокодек: Xvid
Битрейт видео: ~615 Kbit/s
Размер кадра: 640 x 272
Аудиокодек: MP3 2.0
Битрейт аудио: 128 Kbit/s

MediaInfo

Общее
Полное имя : D:\Торренты\РЕЛИЗЫ\Орудия смерти Город костей.2013.D.HDRip.700MB.avi
Формат : AVI
Формат/Информация : Audio Video Interleave
Размер файла : 699 Мбайт
Продолжительность : 2 ч. 9 м.
Общий поток : 753 Кбит/сек
Программа кодирования : VirtualDubMod 1.5.10.2 (build 2540/release)
Библиотека кодирования : VirtualDubMod build 2540/release
Видео
Идентификатор : 0
Формат : MPEG-4 Visual
Профиль формата : Advanced [email protected]
Параметр BVOP формата : 2
Параметр QPel формата : Нет
Параметр GMC формата : Без точки перехода
Параметр матрицы формата : Выборочная
Идентификатор кодека : XVID
Идентификатор кодека/Подсказка : XviD
Продолжительность : 2 ч. 9 м.
Битрейт : 615 Кбит/сек
Ширина : 640 пикс.
Высота : 272 пикс.
Соотношение сторон : 2,35:1
Частота кадров : 23,976 кадр/сек
Цветовое пространство : YUV
Подвыборка цветности : 4:2:0
Битовая глубина : 8 бит
Тип развёртки : Прогрессивная
Метод сжатия : С потерями
Бит/(Пиксели*Кадры) : 0.147
Размер потока : 572 Мбайт (82%)
Библиотека кодирования : XviD 1.2.1 (UTC 2008-12-04)
Аудио
Идентификатор : 1
Формат : MPEG Audio
Версия формата : Version 1
Профиль формата : Layer 3
Идентификатор кодека : 55
Идентификатор кодека/Подсказка : MP3
Продолжительность : 2 ч. 9 м.
Вид битрейта : Постоянный
Битрейт : 128 Кбит/сек
Каналы : 2 канала
Частота : 48,0 КГц
Метод сжатия : С потерями
Размер потока : 119 Мбайт (17%)
Выравнивание : Соединение по промежуткам
Продолжительность промежутка : 42 мс. (1,00 видеокадр)
Время предзагрузки промежутка : 504 ms
Библиотека кодирования : LAME3.99r
Настройки программы : -m s -V 4 -q 2 -lowpass 17 -b 128
Скриншоты:
Яндекс.Метрика
Рейтинг@Mail.ru