(PopMusic) Группа Фея и Светлана Разина - 6 альбомов - 1993-2008, FLAC (image+.cue), lossless

 

Создавать темы 28-Дек-2014 21:14

-Группа Фея и Светлана Разина - 6 альбомов- Жанр: PopMusic
Год выпуска дисков: 1993-2008
Производитель дисков: Россия
Аудио кодек: FLAC
Тип рипа: image+.cue
Битрейт аудио: lossless
Продолжительность: 06:37:08
Официальный сайт: http://www.razina.ru/-Начиналось все в далеком 1986 году, когда на небосклоне советской поп-музыки появилась яркая звезда группы «Мираж». Сияние новоявленной звезды становилось все ярче и ярче, затмевая другие, более слабые светила. А через какое-то время появилась целая галактика, берущая корни все в том же «Мираже».
Светлана Разина родилась 23 июня в Москве. В детстве пела Большом детском хоре Гостелерадио, обучалась в школе народной музыки и танцев при ЦДРИ. После школы поступила в Московский авиационно-технологический институт имени Циолковского. Но и там пела и играла в студенческой кантри-группе, начала осваивать бас-гитару. Стала инженером, а во время обеденных перерывов пела и играла на губной гармошке. В свободное время Светлана любит ездить на машине, читать исторические книги и сказки, увлекается бадминтоном. Любимые фильмы: Французский поцелуй, Блауфингер и – американские комедии и ленты с элементами мистики. Любимые исполнители – «Абба», «Мадонна», «Rummstein».

Далее:

В 1987 году Светлана была приглашена в новообразованную группу «Мираж», в которую позднее пригласила Наталью Гулькину, работавшую на тот период времени телефонисткой. Для группы «Мираж» Светлана написала несколько песен, таких как «Новый герой» «Я не шучу» и др. Выпустив альбом, группа отправляется на гастроли. Рекордное количество концертов, которые давала группа «Мираж» до сих пор ни один коллектив не смог преодолеть! Не поделив денег за концерты, композитор А. Литягин начинает клонировать солисток, чем занимается и сейчас, а поэт «Миража» Валерий Соколов создает группу «Фея», в состав который входят солистка «Миража» С. Разина и клавишник Рома Жуков. Еще будучи в «Мираже», Рома Жуков выпускает сольный альбом «Первый снег» (поэт все тот же Соколов), несколько текстов для которого написала Светлана, спевшая в этом же альбоме песни «Вечер» и «Мой путь». В июле 1989 года выходит первый альбом «Феи» - «Наша музыка», воспринятый слушателями очень доброжелательно. Дискотеки просто тащились от восторга…
Состав «Феи» на тот момент: Светлана Разина – вокал, клавиши; Андрей Козедуб – клавиши (из одного из первых составов «Миража»); Николай Юров – гитара и Екатерина Садовая – клавиши. Раскрутка «Нашей музыки», одновременный марш-бросок по стране, телевизионные съемки и интервью продолжались до конца 1989 года. А в начале 1990 года можно было уже немного перевести дух, успокоиться и снова заняться музыкой. Запись второго магнитоальбома «Мой ветер», окончательное определение состава, укрепление имиджа – в январе группа приступила к очередному штурму. В этот раз главное внимание было уделено постановке шоу. Чтобы «жить стало веселее» и на сцене всегда что-то происходило. Валера Соколов пригласил к «Фее» танцевальную группу «Бит-мастер» Александра Сизова (состав: Вадим Игнатьев, Никита Коробов и сам Сизов) и вторую солистку Инну Смирнову. Появились новый барабанщик Дмитрий Морозов и клавишник Владимир Воленко (в настоящее время солист «Божьей коровки»). Началась работа с профессиональным аранжировщиком Вадимом Володиным (с которым Света сотрудничает и по сей день), внесшим в группу «новую кровь». Альбом «Мой ветер» получился достаточно разнообразным по материалу, в нем было и что-то от панка – «Ты будешь мой», и номер в стиле хип-хоп, и стопроцентные диско-хиты «Демон» и «Принцесса мечты». «Фея» превращается в своеобразную студию, в которой записываются такие группы, как «Комиссар» и «Стелла».
С 1992 года «Фея» пропадает из поля зрения. В 1994 году выходит альбом «Ты будешь мой» - переиздание «Моего ветра» + новые песни, в том числе на английском языке «Don’t you know» и «Desert in my heart».
В 1995 появляется «Я желаниям сдаюсь», в заглавии значится уже просто Светлана Разина. В 1997 году выпускается альбом лучших песен «Маленький секрет любви», в который вошли новые песни «Каменный лев», «Маленький секрет любви» и концертные записи песен «Миража» «Я не шучу» и «Наступает ночь». Разина начинает новую атаку на телевидение. На экране редко, но можно увидеть клипы «Каменный лев» и «Не провожай». В 1998 году выходит диск «Позвони сама». Светлана все чаще появляется в различных телепередачах: «Два рояля», «Как стать звездой» и др. вслед за диском снимается клип «Ночной охотник». В конце года в продаже появляется магнитоальбом «Я люблю Светлану Разину – новое и лучшее» с суперхитами «Ты будешь плакать» и переработкой известного шлягера «Аббы» «Ночь без мужчины». В 2002 году записывается мега хит «Света».
Летом 2005 г. выходит Remix DJ Groove на известную песню гр. «Мираж» - «Музыка нас связала».
В настоящее время Светлана продолжает успешно гастролировать и сочинять не менее талантливые композиции.
-

Треклист:

Фея и Светлана Разина - Ты Будешь Мой - 1993

01. Демон [0:03:38.67]
02. Песня О Любви [0:04:06.70]
03. Мой Ветер [0:04:56.44]
04. Милый Друг [0:04:14.56]
05. Ночь Будет Вечна [0:03:41.65]
06. Ты Будешь Мой [0:04:28.42]
07. Забытая Песня [0:02:55.49]
08. Моя Любовь [0:04:14.42]
09. Каприз [0:03:10.57]
10. Desert In My Heart [0:03:40.27]
11. Принцесса Мечты [0:04:04.40]
12. Вечер [0:05:21.44]
13. Don't You Know [0:03:25.57]
14. Ты Будешь Мой (Dance Mix) [0:05:00.32]
15. Звездная Война [0:04:17.67]

Отчет EAC:

Exact Audio Copy V0.99 prebeta 4 from 23. January 2008
Отчёт EAC об извлечении, выполненном 14. сентября 2008, 8:35
Фея И Светлана Разина / Ты Будешь Мой
Дисковод: ASUS CRW-5232AS Adapter: 0 ID: 0
Режим чтения : Достоверность
Использование точного потока : Да
Отключение кэша аудио : Да
Использование указателей C2 : Нет
Коррекция смещения при чтении : 6
Способность читать области Lead-in и Lead-out : Нет
Заполнение пропущенных сэмплов тишиной : Да
Удаление блоков с тишиной в начале и конце : Нет
При вычислениях CRC использовались нулевые сэмплы : Нет
Интерфейс : Установленный внешний ASPI-интерфейс
Выходной формат : Внутренние WAV-операции
Формат сэмплов : 44.100 Гц; 16 бит; стерео
TOC извлечённого CD
Трек | Старт | Длительность | Начальный сектор | Конечный сектор
---------------------------------------------------------------------
1 | 0:00.00 | 3:38.67 | 0 | 16416
2 | 3:38.67 | 4:06.70 | 16417 | 34936
3 | 7:45.62 | 4:56.44 | 34937 | 57180
4 | 12:42.31 | 4:14.56 | 57181 | 76286
5 | 16:57.12 | 3:41.65 | 76287 | 92926
6 | 20:39.02 | 4:28.42 | 92927 | 113068
7 | 25:07.44 | 2:55.49 | 113069 | 126242
8 | 28:03.18 | 4:14.42 | 126243 | 145334
9 | 32:17.60 | 3:10.57 | 145335 | 159641
10 | 35:28.42 | 3:40.27 | 159642 | 176168
11 | 39:08.69 | 4:04.40 | 176169 | 194508
12 | 43:13.34 | 5:21.44 | 194509 | 218627
13 | 48:35.03 | 3:25.57 | 218628 | 234059
14 | 52:00.60 | 5:00.32 | 234060 | 256591
15 | 57:01.17 | 4:17.67 | 256592 | 275933
Характеристики диапазона извлечения и сообщения об ошибках
Выбранный диапазон
Имя файла F:\Tmp\Фея И Светлана Разина\1. Фея И Светлана Разина - Ты Будешь Мой - 1993\Фея И Светлана Разина - Ты Будешь Мой.wav
Пиковый уровень 100.0 %
Качество диапазона 100.0 %
CRC копии 1ABC4C84
Копирование... OK
Ошибок не произошло
Конец отчёта

Светлана Разина - Маленький Секрет Любви - 1997

01. Каменный Лев [0:03:46.45]
02. Маленький Секрет [0:03:50.20]
03. Новый Год [0:04:17.25]
04. Ураган [0:03:11.20]
05. Не Провожай [0:04:21.67]
06. Ты Будешь Мой [0:04:14.38]
07. Демон [0:04:25.45]
08. Моя Любовь [0:03:35.17]
09. Я Не Шучу (Концертная Версия) [0:03:20.28]
10. Наступает Ночь (Концертная Версия) [0:05:10.72]
11. Ночь Будет Вечна [0:03:38.23]
12. Песня О Любви [0:04:02.02]
13. Бабочка - Ночь [0:05:49.70]

Отчет EAC:

Exact Audio Copy V0.99 prebeta 4 from 23. January 2008
Отчёт EAC об извлечении, выполненном 14. сентября 2008, 9:03
Светлана Разина / Маленький Секрет Любви
Дисковод: ASUS CRW-5232AS Adapter: 0 ID: 0
Режим чтения : Достоверность
Использование точного потока : Да
Отключение кэша аудио : Да
Использование указателей C2 : Нет
Коррекция смещения при чтении : 6
Способность читать области Lead-in и Lead-out : Нет
Заполнение пропущенных сэмплов тишиной : Да
Удаление блоков с тишиной в начале и конце : Нет
При вычислениях CRC использовались нулевые сэмплы : Нет
Интерфейс : Установленный внешний ASPI-интерфейс
Выходной формат : Внутренние WAV-операции
Формат сэмплов : 44.100 Гц; 16 бит; стерео
TOC извлечённого CD
Трек | Старт | Длительность | Начальный сектор | Конечный сектор
---------------------------------------------------------------------
1 | 0:00.00 | 3:46.45 | 0 | 16994
2 | 3:46.45 | 3:50.20 | 16995 | 34264
3 | 7:36.65 | 4:17.25 | 34265 | 53564
4 | 11:54.15 | 3:11.20 | 53565 | 67909
5 | 15:05.35 | 4:21.67 | 67910 | 87551
6 | 19:27.27 | 4:14.38 | 87552 | 106639
7 | 23:41.65 | 4:25.45 | 106640 | 126559
8 | 28:07.35 | 3:35.17 | 126560 | 142701
9 | 31:42.52 | 3:20.28 | 142702 | 157729
10 | 35:03.05 | 5:10.72 | 157730 | 181051
11 | 40:14.02 | 3:38.23 | 181052 | 197424
12 | 43:52.25 | 4:02.02 | 197425 | 215576
13 | 47:54.27 | 5:49.70 | 215577 | 241821
Характеристики диапазона извлечения и сообщения об ошибках
Выбранный диапазон
Имя файла F:\Tmp\Фея И Светлана Разина\2. Светлана Разина - Маленький Секрет Любви - 1997\Светлана Разина - Маленький Секрет Любви.wav
Пиковый уровень 100.0 %
Качество диапазона 100.0 %
CRC копии 2767D939
Копирование... OK
Ошибок не произошло
Конец отчёта

Фея - Демон - 2002

01. Intro [0:00:59.52]
02. Демон [0:03:35.55]
03. Принцесса Мечты [0:03:59.63]
04. Песня О Любви [0:04:02.06]
05. Милый Друг [0:04:10.45]
06. Мой Ветер [0:04:51.45]
07. Ты Будешь Мой [0:04:25.47]
08. Ночь Будет Вечна [0:03:37.42]
09. Забытая Песня [0:02:53.53]
10. Моя Любовь [0:04:11.57]
11. Каприз [0:03:06.41]
12. Ты Будешь Мой (Dance Mix) [0:04:58.42]
13. Выпал Снег [0:04:45.54]
14. Звездная Война [0:04:18.60]
15. Принцесса Мечты (1 Версия) [0:02:34.44]
16. Вечер [0:05:18.30]
17. Мой Путь [0:05:14.68]
18. Logo [0:00:19.63]
19. Мегамикс [0:08:41.57]
20. Logo [0:00:17.63]

Отчет EAC:

Exact Audio Copy V0.99 prebeta 4 from 23. January 2008
Отчёт EAC об извлечении, выполненном 14. сентября 2008, 9:39
Фея / Демон
Дисковод: ASUS CRW-5232AS Adapter: 0 ID: 0
Режим чтения : Достоверность
Использование точного потока : Да
Отключение кэша аудио : Да
Использование указателей C2 : Нет
Коррекция смещения при чтении : 6
Способность читать области Lead-in и Lead-out : Нет
Заполнение пропущенных сэмплов тишиной : Да
Удаление блоков с тишиной в начале и конце : Нет
При вычислениях CRC использовались нулевые сэмплы : Нет
Интерфейс : Установленный внешний ASPI-интерфейс
Выходной формат : Внутренние WAV-операции
Формат сэмплов : 44.100 Гц; 16 бит; стерео
TOC извлечённого CD
Трек | Старт | Длительность | Начальный сектор | Конечный сектор
---------------------------------------------------------------------
1 | 0:00.00 | 0:59.52 | 0 | 4476
2 | 0:59.52 | 3:35.55 | 4477 | 20656
3 | 4:35.32 | 3:59.63 | 20657 | 38644
4 | 8:35.20 | 4:02.06 | 38645 | 56800
5 | 12:37.26 | 4:10.45 | 56801 | 75595
6 | 16:47.71 | 4:51.45 | 75596 | 97465
7 | 21:39.41 | 4:25.47 | 97466 | 117387
8 | 26:05.13 | 3:37.42 | 117388 | 133704
9 | 29:42.55 | 2:53.53 | 133705 | 146732
10 | 32:36.33 | 4:11.57 | 146733 | 165614
11 | 36:48.15 | 3:06.41 | 165615 | 179605
12 | 39:54.56 | 4:58.42 | 179606 | 201997
13 | 44:53.23 | 4:45.54 | 201998 | 223426
14 | 49:39.02 | 4:18.60 | 223427 | 242836
15 | 53:57.62 | 2:34.44 | 242837 | 254430
16 | 56:32.31 | 5:18.30 | 254431 | 278310
17 | 61:50.61 | 5:14.68 | 278311 | 301928
18 | 67:05.54 | 0:19.63 | 301929 | 303416
19 | 67:25.42 | 8:41.57 | 303417 | 342548
20 | 76:07.24 | 0:17.63 | 342549 | 343886
Характеристики диапазона извлечения и сообщения об ошибках
Выбранный диапазон
Имя файла F:\Tmp\Фея И Светлана Разина\3. Фея - Демон - 2002\Фея - Демон.wav
Пиковый уровень 100.0 %
Качество диапазона 99.9 %
CRC копии 082B54E5
Копирование... OK
Ошибок не произошло
Конец отчёта

Светлана Разина - Мне Это Нравится (Новое И Лучшее) - 2002

01. Света [0:03:16.64]
02. Плакать 2001 [0:04:15.70]
03. Мне Нравится [0:03:25.42]
04. Каменный Лев [0:03:45.51]
05. Ночной Охотник [0:03:53.03]
06. Белая Луна [0:03:51.57]
07. Позвони Сама [0:03:54.46]
08. Ты Будешь Мой (Remix) [0:04:58.54]
09. Ураган [0:04:21.43]
10. Бабочка-Ночь [0:04:47.02]
11. Шоколадные Девочки [0:04:10.14]
12. Не Провожай [0:03:11.06]
13. Песня О Любви [0:04:01.57]
14. Мой Ветер [0:04:54.60]
15. Маленький Секрет [0:03:49.05]
16. Звездная Война [0:04:19.73]
17. Дорога Длинная [0:03:51.26]

Отчет EAC:

Exact Audio Copy V0.99 prebeta 4 from 23. January 2008
Отчёт EAC об извлечении, выполненном 14. сентября 2008, 10:12
Светлана Разина / Мне Это Нравится (Новое И Лучшее)
Дисковод: ASUS CRW-5232AS Adapter: 0 ID: 0
Режим чтения : Достоверность
Использование точного потока : Да
Отключение кэша аудио : Да
Использование указателей C2 : Нет
Коррекция смещения при чтении : 6
Способность читать области Lead-in и Lead-out : Нет
Заполнение пропущенных сэмплов тишиной : Да
Удаление блоков с тишиной в начале и конце : Нет
При вычислениях CRC использовались нулевые сэмплы : Нет
Интерфейс : Установленный внешний ASPI-интерфейс
Выходной формат : Внутренние WAV-операции
Формат сэмплов : 44.100 Гц; 16 бит; стерео
TOC извлечённого CD
Трек | Старт | Длительность | Начальный сектор | Конечный сектор
---------------------------------------------------------------------
1 | 0:00.00 | 3:16.64 | 0 | 14763
2 | 3:16.64 | 4:15.70 | 14764 | 33958
3 | 7:32.59 | 3:25.42 | 33959 | 49375
4 | 10:58.26 | 3:45.51 | 49376 | 66301
5 | 14:44.02 | 3:53.03 | 66302 | 83779
6 | 18:37.05 | 3:51.57 | 83780 | 101161
7 | 22:28.62 | 3:54.46 | 101162 | 118757
8 | 26:23.33 | 4:58.54 | 118758 | 141161
9 | 31:22.12 | 4:21.43 | 141162 | 160779
10 | 35:43.55 | 4:47.02 | 160780 | 182306
11 | 40:30.57 | 4:10.14 | 182307 | 201070
12 | 44:40.71 | 3:11.06 | 201071 | 215401
13 | 47:52.02 | 4:01.57 | 215402 | 233533
14 | 51:53.59 | 4:54.60 | 233534 | 255643
15 | 56:48.44 | 3:49.05 | 255644 | 272823
16 | 60:37.49 | 4:19.73 | 272824 | 292321
17 | 64:57.47 | 3:51.26 | 292322 | 309672
Характеристики диапазона извлечения и сообщения об ошибках
Выбранный диапазон
Имя файла F:\Tmp\Фея И Светлана Разина\4. Светлана Разина - Мне Это Нравится (Новое И Лучшее) - 2002\Светлана Разина - Мне Это Нравится (Новое И Лучшее).wav
Пиковый уровень 100.0 %
Качество диапазона 100.0 %
CRC копии 8B44DDCB
Копирование... OK
Ошибок не произошло
Конец отчёта

Светлана Разина - Шедевры Эстрады (Лучшие Песни) - 2003

01. Ты Будешь Плакать [0:04:14.50]
02. Каменный Лев [0:03:46.31]
03. Зима [0:03:29.33]
04. Ночной Охотник [0:03:53.32]
05. Не Провожай [0:03:11.23]
06. Ураган [0:04:21.70]
07. Маленький Секрет [0:03:49.74]
08. Чувство [0:05:04.36]
09. Бабочка - Ночь [0:04:47.07]
10. Песня О Любви [0:04:02.05]
11. Позвони Сама [0:03:54.68]
12. Белая Луна [0:03:51.56]
13. Ты Будешь Мой [0:04:25.45]
14. Кино Не Для Всех [0:04:54.65]
15. Демон [0:03:35.19]
16. Выпал Снег [0:04:44.01]

Отчет EAC:

Exact Audio Copy V0.99 prebeta 4 from 23. January 2008
Отчёт EAC об извлечении, выполненном 14. сентября 2008, 10:21
Светлана Разина / Шедевры Эстрады (Лучшие Песни)
Дисковод: _NEC DVD_RW ND-3540A Adapter: 0 ID: 0
Режим чтения : Достоверность
Использование точного потока : Да
Отключение кэша аудио : Да
Использование указателей C2 : Нет
Коррекция смещения при чтении : 48
Способность читать области Lead-in и Lead-out : Нет
Заполнение пропущенных сэмплов тишиной : Да
Удаление блоков с тишиной в начале и конце : Нет
При вычислениях CRC использовались нулевые сэмплы : Нет
Интерфейс : Встроенный Win32-интерфейс для Win NT/2000
Выходной формат : Внутренние WAV-операции
Формат сэмплов : 44.100 Гц; 16 бит; стерео
TOC извлечённого CD
Трек | Старт | Длительность | Начальный сектор | Конечный сектор
---------------------------------------------------------------------
1 | 0:00.00 | 4:14.50 | 0 | 19099
2 | 4:14.50 | 3:46.31 | 19100 | 36080
3 | 8:01.06 | 3:29.33 | 36081 | 51788
4 | 11:30.39 | 3:53.32 | 51789 | 69295
5 | 15:23.71 | 3:11.23 | 69296 | 83643
6 | 18:35.19 | 4:21.70 | 83644 | 103288
7 | 22:57.14 | 3:49.74 | 103289 | 120537
8 | 26:47.13 | 5:04.36 | 120538 | 143373
9 | 31:51.49 | 4:47.07 | 143374 | 164905
10 | 36:38.56 | 4:02.05 | 164906 | 183060
11 | 40:40.61 | 3:54.68 | 183061 | 200678
12 | 44:35.54 | 3:51.56 | 200679 | 218059
13 | 48:27.35 | 4:25.45 | 218060 | 237979
14 | 52:53.05 | 4:54.65 | 237980 | 260094
15 | 57:47.70 | 3:35.19 | 260095 | 276238
16 | 61:23.14 | 4:44.01 | 276239 | 297539
Характеристики диапазона извлечения и сообщения об ошибках
Выбранный диапазон
Имя файла D:\Temp\Светлана Разина - Шедевры Эстрады (Лучшие Песни).wav
Пиковый уровень 98.9 %
Качество диапазона 99.9 %
CRC копии E3215E91
Копирование... OK
Ошибок не произошло
Конец отчёта

Светлана Разина - Музыка Нас Связала - 2008

01. Миражи [0:03:46.69]
02. Света [0:03:24.48]
03. Нравится [0:03:25.24]
04. Плакать [0:04:14.24]
05. Музыка (Dj Groove Remix) [0:03:06.15]
06. Всю Ночь [0:03:17.12]
07. Megamix [0:06:33.20]
08. Милый, Хороший, Красивый [0:03:16.20]
09. Не Провожай [0:03:14.38]
10. Чувство [0:05:05.27]
11. Музыка (Unplugged) [0:03:33.54]
12. Короче [0:03:19.28]
13. Звезды [0:04:14.62]
14. Где Я [0:04:23.40]
15. Наступает Ночь [0:04:22.09]
16. Музыка Нас Связала [0:04:12.60]
17. Электричество [0:03:19.15]
18. Новый Герой [0:03:55.54]

Отчет EAC:

Exact Audio Copy V0.99 prebeta 4 from 23. January 2008
Отчёт EAC об извлечении, выполненном 14. сентября 2008, 10:34
Светлана Разина / Музыка Нас Связала
Дисковод: _NEC DVD_RW ND-3540A Adapter: 0 ID: 0
Режим чтения : Достоверность
Использование точного потока : Да
Отключение кэша аудио : Да
Использование указателей C2 : Нет
Коррекция смещения при чтении : 48
Способность читать области Lead-in и Lead-out : Нет
Заполнение пропущенных сэмплов тишиной : Да
Удаление блоков с тишиной в начале и конце : Нет
При вычислениях CRC использовались нулевые сэмплы : Нет
Интерфейс : Встроенный Win32-интерфейс для Win NT/2000
Выходной формат : Внутренние WAV-операции
Формат сэмплов : 44.100 Гц; 16 бит; стерео
TOC извлечённого CD
Трек | Старт | Длительность | Начальный сектор | Конечный сектор
---------------------------------------------------------------------
1 | 0:00.00 | 3:46.69 | 0 | 17018
2 | 3:46.69 | 3:24.48 | 17019 | 32366
3 | 7:11.42 | 3:25.24 | 32367 | 47765
4 | 10:36.66 | 4:14.24 | 47766 | 66839
5 | 14:51.15 | 3:06.15 | 66840 | 80804
6 | 17:57.30 | 3:17.12 | 80805 | 95591
7 | 21:14.42 | 6:33.20 | 95592 | 125086
8 | 27:47.62 | 3:16.20 | 125087 | 139806
9 | 31:04.07 | 3:14.38 | 139807 | 154394
10 | 34:18.45 | 5:05.27 | 154395 | 177296
11 | 39:23.72 | 3:33.54 | 177297 | 193325
12 | 42:57.51 | 3:19.28 | 193326 | 208278
13 | 46:17.04 | 4:14.62 | 208279 | 227390
14 | 50:31.66 | 4:23.40 | 227391 | 247155
15 | 54:55.31 | 4:22.09 | 247156 | 266814
16 | 59:17.40 | 4:12.60 | 266815 | 285774
17 | 63:30.25 | 3:19.15 | 285775 | 300714
18 | 66:49.40 | 3:55.54 | 300715 | 318393
Характеристики диапазона извлечения и сообщения об ошибках
Выбранный диапазон
Имя файла D:\Temp\Светлана Разина - Музыка Нас Связала.wav
Пиковый уровень 100.0 %
Качество диапазона 100.0 %
CRC копии CE0F33A0
Копирование... OK
Ошибок не произошло
Конец отчёта
-

Информация по релизу:

Альбом "Ты Будешь Мой" по данным на диске выпущен в 1993 году компанией "Русское Снабжение" (номер RS-93009), хотя в официальной дискографии год релиза 1994. Оставлено как есть. На данный момент в коллекции только копия оригинального диска. Альбомы "Я Желаниям Сдаюсь" 1995 года и "Позвони Сама" 1998 года уже есть на трэкере.
В альбоме Маленький секрет любви (1997) перепутаны названия треков.
Реально:
04. Не Провожай
05. Ураган
06. Моя любовь
07. Ты Будешь Мой
08. Демон
-
Яндекс.Метрика
Рейтинг@Mail.ru