[ Сегодня на трекере фрилич! Идет свободное скачивание без начисления Download ]

Неоспоримый 2 / Undisputed II: Last Man Standing (Айзек Флорентайн / Isaac Florentine) [2006 г., Боевик, драма, криминал, спорт, BDRip, 720p] AVO (Евгений Гранкин) + MVO + Original (Eng)

 

Создавать темы 28-Дек-2014 17:34

Неоспоримый 2 / Undisputed II: Last Man Standing
Год выпуска: 2006
Производство: США
Жанр: Боевик, драма, криминал, спорт
Продолжительность: 01:37:35
Перевод: Авторский (одноголосый, закадровый) Евгений Гранкин
Перевод 2: Профессиональный (многоголосый, закадровый)
Оригинальный аудиопоток: английский
Субтитры: отсутствуют
Режиссер: Айзек Флорентайн / Isaac Florentine
В ролях: Майкл Джей Уайт, Скотт Эдкинс, Бен Кросс, Эли Данкер, Марк Иванир, Кен Лернер, Дэйзи Лэнг, Сильвио Шимач, Ивайло Герасков, Валентин Ганев
Описание: Бывший чемпион мира по боксу во время визита в Россию случайно попадает в криминальную разборку, связанную с высшими правительственными чинами и против него фабрикуется ложное дело. Дорога домой будет долгой и трудной, проходящей через суровую российскую тюрьму…
Сэмпл , , КиноПоиск
Качество видео: BDRip
Контейнер: MKV
Стандарт разрешения: 720p
Видео кодек: H.264
Аудио кодек: AC3
Видео: 1280x688, 23.976 fps, 6448 Kbps, 0.305 bt/px
Аудио : AC-3, 192 Kbps, 2 ch, 48.0 KHz Rus Гранкин
Аудио : AC-3, 448 Kbps, 6 ch, 48.0 KHz Rus MVO
Аудио : AC-3, 448 Kbps, 6 ch, 48.0 KHz Eng Original

Media Info

J:\UNDISPUTED_2(НЕОСПОРИМЫЙ_2).mkv
General
Unique ID : 197177592092922075465443727342145517390 (0x945705DC9A824EFCB86DE19D2D3A374E)
Complete name : J:\UNDISPUTED_2(НЕОСПОРИМЫЙ_2).mkv
Format : Matroska
Format version : Version 1
File size : 5.24 GiB
Duration : 1h 37mn
Overall bit rate : 7 689 Kbps
Movie name : Неоспоримый 2 / Undisputed IIc Last Man Standing (2006) BDRip 720p by nextDred
Encoded date : UTC 2014-12-28 06:23:18
Writing application : mkvmerge v2.5.3 ('Boogie') built on Mar 7 2009 15:00:41
Writing library : libebml v0.7.7 + libmatroska v0.8.1
Video #1
ID : 1
Format : AVC
Format/Info : Advanced Video Codec
Format profile : [email protected]
Format settings, CABAC : Yes
Format settings, ReFrames : 9 frames
Codec ID : V_MPEG4/ISO/AVC
Duration : 1h 37mn
Bit rate : 6 448 Kbps
Nominal bit rate : 6 800 Kbps
Width : 1 280 pixels
Height : 688 pixels
Display aspect ratio : 1.85:1
Frame rate mode : Constant
Frame rate : 23.976 fps
Color space : YUV
Chroma subsampling : 4:2:0
Bit depth : 8 bits
Scan type : Progressive
Bits/(Pixel*Frame) : 0.305
Stream size : 4.40 GiB (84%)
Writing library : x264 core 130 r2273 b3065e6
Encoding settings : cabac=1 / ref=9 / deblock=1:-3:-3 / analyse=0x3:0x133 / me=umh / subme=11 / psy=1 / psy_rd=1.00:0.00 / mixed_ref=1 / me_range=32 / chroma_me=1 / trellis=2 / 8x8dct=1 / cqm=0 / deadzone=21,11 / fast_pskip=0 / chroma_qp_offset=-2 / threads=6 / lookahead_threads=1 / sliced_threads=0 / nr=0 / decimate=0 / interlaced=0 / bluray_compat=0 / constrained_intra=0 / bframes=8 / b_pyramid=2 / b_adapt=2 / b_bias=0 / direct=3 / weightb=1 / open_gop=0 / weightp=2 / keyint=250 / keyint_min=23 / scenecut=40 / intra_refresh=0 / rc_lookahead=50 / rc=abr / mbtree=1 / bitrate=6800 / ratetol=1.0 / qcomp=0.60 / qpmin=0 / qpmax=51 / qpstep=4 / ip_ratio=1.40 / aq=1:1.00
Language : English
Default : Yes
Forced : No
Audio #2
ID : 2
Format : AC-3
Format/Info : Audio Coding 3
Mode extension : CM (complete main)
Format settings, Endianness : Big
Codec ID : A_AC3
Duration : 1h 37mn
Bit rate mode : Constant
Bit rate : 192 Kbps
Channel(s) : 2 channels
Channel positions : Front: L R
Sampling rate : 48.0 KHz
Bit depth : 16 bits
Compression mode : Lossy
Delay relative to video : 1s 0ms
Stream size : 134 MiB (2%)
Title : AVO Гранкин
Language : Russian
Default : Yes
Forced : No
Audio #3
ID : 3
Format : AC-3
Format/Info : Audio Coding 3
Mode extension : CM (complete main)
Format settings, Endianness : Big
Codec ID : A_AC3
Duration : 1h 37mn
Bit rate mode : Constant
Bit rate : 448 Kbps
Channel(s) : 6 channels
Channel positions : Front: L C R, Side: L R, LFE
Sampling rate : 48.0 KHz
Bit depth : 16 bits
Compression mode : Lossy
Stream size : 313 MiB (6%)
Title : MVO
Language : Russian
Default : No
Forced : No
Audio #4
ID : 4
Format : AC-3
Format/Info : Audio Coding 3
Mode extension : CM (complete main)
Format settings, Endianness : Big
Codec ID : A_AC3
Duration : 1h 37mn
Bit rate mode : Constant
Bit rate : 448 Kbps
Channel(s) : 6 channels
Channel positions : Front: L C R, Side: L R, LFE
Sampling rate : 48.0 KHz
Bit depth : 16 bits
Compression mode : Lossy
Stream size : 313 MiB (6%)
Language : English
Default : No
Forced : No

log x.264

x264 [info]: frame I:1106  Avg QP:17.78  size:123096
x264 [info]: frame P:27823 Avg QP:21.25 size: 49523
x264 [info]: frame B:111467 Avg QP:22.66 size: 29740
x264 [info]: consecutive B-frames: 1.4% 1.8% 2.9% 24.4% 6.4% 47.6% 3.0% 10.7% 1.6%
x264 [info]: mb I I16..4: 3.5% 86.8% 9.7%
x264 [info]: mb P I16..4: 0.4% 10.3% 0.9% P16..4: 30.6% 39.8% 13.2% 1.0% 0.0% skip: 3.7%
x264 [info]: mb B I16..4: 0.0% 2.1% 0.1% B16..8: 44.6% 24.9% 4.9% direct: 8.7% skip:14.7% L0:47.2% L1:45.5% BI: 7.3%
x264 [info]: final ratefactor: 19.02
x264 [info]: 8x8 transform intra:90.1% inter:63.5%
x264 [info]: direct mvs spatial:100.0% temporal:0.0%
x264 [info]: coded y,uvDC,uvAC intra: 95.7% 75.9% 52.9% inter: 53.9% 24.9% 7.2%
x264 [info]: i16 v,h,dc,p: 46% 13% 8% 32%
x264 [info]: i8 v,h,dc,ddl,ddr,vr,hd,vl,hu: 6% 5% 5% 12% 17% 15% 15% 12% 13%
x264 [info]: i4 v,h,dc,ddl,ddr,vr,hd,vl,hu: 9% 6% 5% 9% 16% 15% 15% 12% 13%
x264 [info]: i8c dc,h,v,p: 45% 22% 16% 17%
x264 [info]: Weighted P-Frames: Y:3.4% UV:1.9%
x264 [info]: ref P L0: 40.6% 8.4% 17.6% 9.4% 6.9% 6.2% 4.7% 3.3% 2.7% 0.2% 0.0%
x264 [info]: ref B L0: 64.8% 13.9% 8.5% 4.4% 3.6% 2.8% 1.6% 0.4%
x264 [info]: ref B L1: 89.3% 10.7%
x264 [info]: kb/s:6597.37
x264 [total]: encoded 140396 frames, 3.60 fps, 6597.38 kb/s

Скриншоты

Яндекс.Метрика
Рейтинг@Mail.ru