Свадьбы не будет (Игорь Войтулевич) [2014 г., мелодрама, комедия, HDTVRip]

 

Создавать темы 28-Дек-2014 17:32

-Свадьбы не будет-- Производство: Россия
Режиссер: Игорь Войтулевич
Жанр: мелодрама, комедия
Год выпуска: 2014 г.
Продолжительность: 01:31:55
Российская премьера: 27 декабря 2014
В ролях: Ян Ильвес, Варвара Бородина, Эвелина Блёданс, Анна Ардова, Иван Лапин, Александра Мельник, Андрей Москвичёв, Ирина Антоненко-Описание: Надя и Артём решили пожениться, но их мамы в ужасе от выбора своих чад. Открытая война? Нет, это только подхлестнет детей к совершению роковой ошибки. Нужно срочно объединить усилия. Неужели будущие теща и свекровь не смогут расстроить свадьбу? В ход идут все запрещенные приемы. Выстоит ли настоящая любовь против материнских интриг?-
Качество видео: HDTVRip
Контейнер: AVI
Видео кодек: XviD
Аудио кодек: MP3
Видео: 656x368 (1.78:1), 25 fps, XviD build 73 ~995 kbps avg, 0.17 bit/pixel
Аудио: 48 kHz, MPEG Layer 3, 2 ch, ~128.00 kbps avg
Cубтитры: отсутствуют

Media Info

Общее
Полное имя : E:\Фильмы\Svad'by.ne.budet.2014.HDTVRip.745MB.avi
Формат : AVI
Формат/Информация : Audio Video Interleave
Размер файла : 745 Мбайт
Продолжительность : 1 ч. 31 м.
Общий поток : 1133 Кбит/сек
Программа кодирования : VirtualDubMod 1.5.10.3 (build 2550/release)
Библиотека кодирования : VirtualDubMod build 2550/release
Правообладатель : rip by ivandubskoj
Видео
Идентификатор : 0
Формат : MPEG-4 Visual
Профиль формата : Advanced [email protected]
Параметр BVOP формата : 2
Параметр QPel формата : Нет
Параметр GMC формата : Без точки перехода
Параметр матрицы формата : Выборочная
Идентификатор кодека : XVID
Идентификатор кодека/Подсказка : XviD
Продолжительность : 1 ч. 31 м.
Битрейт : 996 Кбит/сек
Ширина : 656 пикселей
Высота : 368 пикселей
Соотношение сторон : 16:9
Частота кадров : 25,000 кадров/сек
Цветовое пространство : YUV
Субдискретизация насыщенности : 4:2:0
Битовая глубина : 8 бит
Тип развёртки : Прогрессивная
Метод сжатия : С потерями
Бит/(Пиксели*Кадры) : 0.165
Размер потока : 655 Мбайт (88%)
Библиотека кодирования : XviD 73
Аудио
Идентификатор : 1
Формат : MPEG Audio
Версия формата : Version 1
Профиль формата : Layer 3
Идентификатор кодека : 55
Идентификатор кодека/Подсказка : MP3
Продолжительность : 1 ч. 31 м.
Вид битрейта : Постоянный
Битрейт : 128 Кбит/сек
Каналы : 2 канала
Частота : 48,0 КГц
Метод сжатия : С потерями
Размер потока : 84,2 Мбайт (11%)
Выравнивание : Соединение по промежуткам
Продолжительность промежутка : 40 мс. (1,00 видеокадр)
Время предзагрузки промежутка : 504 мс.
Библиотека кодирования : LAME3.99r
Настройки программы : -m s -V 4 -q 0 -lowpass 17 -b 128
Скриншоты
-
Яндекс.Метрика
Рейтинг@Mail.ru