Симпсоны / The Simpsons / Сезон: 26 / Серии: 8 из 22 (Мэтт Гроунинг / Matt Groening) [2014, Мультфильм, комедия, WEB-DLRip] MVO (VO-production) + MVO (Nice-Media) + Original (Eng) +Sub (Rus, Eng) [обновляемая]

 

Создавать темы 28-Дек-2014 17:31

-Симпсоны / The Simpsons
«Just a product of society that's lost its good manners»
-- Производство: США
Жанр: мультфильм, комедия, семейный, ...
Год выпуска: 2013 г.
Мировая премьера: 17 декабря 1989, ...
Дата выхода DVD: 21 августа 2008, «Двадцатый Век Фокс СНГ», ...
Релиз: Студия |Nice-Media|
Перевод: Многоголосый закадровый, профессиональный
Озвучка: Многоголосый закадровый, профессиональный |VO-production|
Озвучка: Многоголосый закадровый, профессиональный |Nice-Media|
Оригинальный аудиопоток: английский
Режиссер: Марк Керклэнд / Mark Kirkland, Стивен Дин Мур / Steven Dean Moore, Джим Рирдон / Jim Reardon ...
В ролях: Дэн Кастелланета, Джули Кавнер, Нэнси Картрайт, Ярдли Смит, Гарри Ширер, Хэнк Азария, Памела Хейден, Тресс МакНилл, Карл Видерготт, Мэгги Росвэлл ...-Описание:
Симпсоны живут в вымышленном городе Спрингфилд, со своим обществом и историей. Гомер - отец семейства, который дает плохие советы и работает инспектором безопасности на атомной электростанции; Мардж - любящая мать и жена, старается сохранить спокойствие в семье; Барт - 10 летний хулиган; Лиза - философский 8-летний ребенок; и Мэгги - младенец, который общается посредством соски.-Сезон: 26
Серии: 8 из 22 серий
Продолжительность: ~ 00:22:00 мин серия-Качество видео: WEB-DLRip
Формат: AVI
Видеокодек: XviD
Аудиокодек: AC-3
Видео: MPEG-4 Visual at 1800 Кбит/сек: 720 x 400 (1.800) at 23.976 fps, 0.26 bit/pixel
Аудио Rus: AC-3 at 192 Кбит/сек: 2 канала, 48,0 КГц |VO-production|
Аудио Rus: AC-3 at 192 Кбит/сек: 2 канала, 48,0 КГц |Nice-Media|
Аудио Eng: AC-3 at 192 Кбит/сек: 2 канала, 48,0 КГц |Original|
Cубтитры: Русские, Английские
Формат: SRT
- -

Список серий:

  • Клоун на свалке (Clown in the Dumps)
  • Крушение Отношений (The Wreck of the Relationship)
  • Супер франшизу мне (Super Franchise Me)
  • Домик ужасов на деревне 25 (Treehouse of Horror XXV)
  • Изнанка ГРП (Opposites A-Frack)
  • Симпсорама (Simpsorama)
  • Пылающий и сконфуженный (Blazed and Confused)
  • Гаражное ремесло (Covercraft)
  • Я не буду дома на Рождество (I Won't Be Home for Christmas)


  • (Blazed and Confused)

  • (The Man Who Came to Be Dinner)
-

MediaInfo:

Общее
Полное имя                               : E:\_Сериалы\_МультСериалы\Симпсоны\The Simpsons.Season 26\The.Simpsons.s26e01.rus.eng.avi
Формат                                   : AVI
Формат/Информация                        : Audio Video Interleave
Размер файла                             : 363 Мбайт
Продолжительность                        : 21 м.
Общий поток                              : 2395 Кбит/сек
Программа кодирования                    : VirtualDubMod 1.5.10.2 (build 2540/release)
Библиотека кодирования                   : VirtualDubMod build 2540/release
Видео
Идентификатор                            : 0
Формат                                   : MPEG-4 Visual
Профиль формата                          : Advanced [email protected]
Параметр BVOP формата                    : 1
Параметр QPel формата                    : Нет
Параметр GMC формата                     : Без точки перехода
Параметр матрицы формата                 : Default (MPEG)
Идентификатор кодека                     : XVID
Идентификатор кодека/Подсказка           : XviD
Продолжительность                        : 21 м.
Битрейт                                  : 1800 Кбит/сек
Ширина                                   : 720 пикселей
Высота                                   : 400 пикселей
Соотношение сторон                       : 16:9
Частота кадров                           : 23,976 кадра/сек
Цветовое пространство                    : YUV
Субдискретизация насыщенности            : 4:2:0
Битовая глубина                          : 8 бит
Тип развёртки                            : Прогрессивная
Метод сжатия                             : С потерями
Бит/(Пиксели*Кадры)                      : 0.261
Размер потока                            : 273 Мбайт (75%)
Библиотека кодирования                   : XviD 65
Аудио #1
Идентификатор                            : 1
Формат                                   : AC-3
Формат/Информация                        : Audio Coding 3
Расширение режима                        : CM (complete main)
Параметр Endianness формата              : Big
Идентификатор кодека                     : 2000
Продолжительность                        : 21 м.
Вид битрейта                             : Постоянный
Битрейт                                  : 192 Кбит/сек
Каналы                                   : 2 канала
Расположение каналов                     : Front: L R
Частота                                  : 48,0 КГц
Битовая глубина                          : 16 бит
Метод сжатия                             : С потерями
Размер потока                            : 29,1 Мбайт (8%)
Выравнивание                             : Разделение по промежуткам
Продолжительность промежутка             : 42  мс. (1,00 видеокадр)
Время предзагрузки промежутка            : 500  мс.
Аудио #2
Идентификатор                            : 2
Формат                                   : AC-3
Формат/Информация                        : Audio Coding 3
Расширение режима                        : CM (complete main)
Параметр Endianness формата              : Big
Идентификатор кодека                     : 2000
Продолжительность                        : 21 м.
Вид битрейта                             : Постоянный
Битрейт                                  : 192 Кбит/сек
Каналы                                   : 2 канала
Расположение каналов                     : Front: L R
Частота                                  : 48,0 КГц
Битовая глубина                          : 16 бит
Метод сжатия                             : С потерями
Размер потока                            : 29,1 Мбайт (8%)
Выравнивание                             : Разделение по промежуткам
Продолжительность промежутка             : 42  мс. (1,00 видеокадр)
Время предзагрузки промежутка            : 500  мс.
Аудио #3
Идентификатор                            : 3
Формат                                   : AC-3
Формат/Информация                        : Audio Coding 3
Расширение режима                        : CM (complete main)
Параметр Endianness формата              : Big
Идентификатор кодека                     : 2000
Продолжительность                        : 21 м.
Вид битрейта                             : Постоянный
Битрейт                                  : 192 Кбит/сек
Каналы                                   : 2 канала
Расположение каналов                     : Front: L R
Частота                                  : 48,0 КГц
Битовая глубина                          : 16 бит
Метод сжатия                             : С потерями
Размер потока                            : 29,1 Мбайт (8%)
Выравнивание                             : Разделение по промежуткам
Продолжительность промежутка             : 42  мс. (1,00 видеокадр)
Время предзагрузки промежутка            : 500  мс.
http-://rutracker.org/forum/viewtopic.php?t=4838225
-

Скриншот c названием фильма

-Скриншоты:
-

Еще

-

Внимание! Раздача ведётся путём добавления новых серий!

Раздача ведётся путём добавления новых серий; при каждом добавлении создаётся новый торрент.
Чтобы начать докачку новой серии, пользователям необходимо сделать следующее:
1. остановить скачивание,
2. удалить старый торрент у себя из клиента (старые серии удалять не надо),
3. скачать новый торрент и запустить его у себя в клиенте вместо старого, при этом указать клиенту путь в старую папку, куда и должно происходить скачивание новых серий.
Ваш клиент при этом должен произвести хеширование (проверку) старой папки (если не производит сам - помогите ему сделать это), и будет докачивать только те серии которых у вас ещё нет. Старые серии при этом не удаляются, а продолжают раздаваться!
Eсли вы уже удалили старые серии, то предотвратить повторную закачку старых серий можно, отжав галочку в соответствующих местах при запуске нового торрента. По возможности, желательно не удалять старые серии как можно дольше, чтобы релизёр не столько продолжал раздавать старые серии, а смог сконцентрироваться на новых.
Совет для тех, кто не хочет ждать перехеширования:
Создайте ещё одну папку рядом с папкой сериала (рядом, а не в ней!!!). Каждую новую серию после удачной загрузки копируйте в новую папку так чтобы ваша основная папка всегда была пуста. Когда ваш новый торрент предложит вам закачать все файлы, выберете только последнюю. Для сидирования же укажите адрес новой папки.
Как закачать отдельный файл из торрента или докачать ранее пропущенные файлы торрента!
-

Как закачать отдельный файл

1. Открыть торрент
2. Снять галки с тех файлов торрента, которые мы не хотим закачивать. Оставляем только на нужных нам файлах (файле).
3. Нажать О.К.
В клиенте utorrent
Инструкция
1) Открыть торрент

2) Снять галки с тех файлов торрента, которые мы не хотим закачивать:
* либо вручную, снимая с каждого файла галку( скрин №1)
* либо, нажав кнопку "Снять метки (Select None)", сняв сразу со всех файлов(скрин №2)
№1

№2

Оставляем только на нужных нам файлах (файле).

3)Нажать О.К
-Добавлена восьмая серия двадцать шестого сезона
Яндекс.Метрика
Рейтинг@Mail.ru