Храброе Сердце / Отважное Сердце / Braveheart (Мел Гибсон /Mel Gibson) [1995 г., Исторический фильм, драма., BDRip-AVC] AVO (Гаврилов, Визгунов, Кашкин)

 

Создавать темы 28-Дек-2014 17:29

Храброе Сердце / Отважное Сердце / Braveheart
«He who fought, fought for freedom»
- Год выпуска: 1995
Страна: США
Жанр: Исторический фильм, драма.
Продолжительность: 02:57:43
Перевод: Авторский (одноголосый) Андрей Гаврилов, Сергей Визгунов, Александр Кашкин;
Субтитры: Русские
Режиссер: Мел Гибсон / Mel Gibson
В ролях: Мел Гибсон / Mel Gibson, Софи Марсо / Sophie Marceau, Патрик МакГуэн / Patrick McGoohan, Кэтрин МакКормак / Catherine McCormack, Ангус Макфэдьен / Angus MacFadyen, Брендан Глисон / Brendan Gleeson, Дэвид О'Хара / David O'Hara, Иэн Бэннен / Ian Bannen, Шон Лоулор / Sean Lawlor, Сэнди Нелсон, Джеймс Космо / James Cosmo, Шон МакГинли / Sean McGinly, Элан Толл, Брайан Кокс / Brian Cox, Питер Хэнли / Peter Hanly
Описание: Действие этого широкомасштабного фильма, чем-то напоминающего "Спартак", начинается в 1280 год в Шотландии. Мы узнаем историю легендарного национального героя Уильяма Уолласа, посвятившего себя борьбе с англичанами при короле Эдварде Длинноногом. Он рано лишился отца, погибшего от рук англичан, и его забрал к себе дядя Оргайл, который дал ему хорошее образование в Европе. На Родину Уильям возвращается уже взрослым человеком (Гибсон), мечтающим завести семью и жить мирной жизнью. Но судьба распорядилась иначе. Его невесту убили англичане, и он начал свой крестовый поход за свободу. Он знал победы, поражения, дружбу, любовь и предательство. Заканчивается фильм его казнью под пытками и последним словом "свобода". Нигде в кино я не видел еще так великолепно сделанных батальных сцен. Некоторые могут счесть их излишне жестокими, но вряд ли они могут быть более жестокими, чем это было в реальности. "Оскары" за лучшую картину, режиссуру, операторскую работу, грим (Питер Фрэмптон, Пол Пэттисон, Луис Беруэлл), звуковые эффекты (Лон Бендер и Пер Холлберг). Номинции за лучший оригинальный сценарий, лучшие костюмы, монтаж, музыкальное, драматическое сопровождение, звук. (Иванов М.)

Качество видео: BDDRip-AVC
Контейнер: MKV
Видео кодек: MPEG4-AVC / H.264
Видео: 1072x456 / 3328 kbps / 23,976 fps / 2,35:1 / High Profile 4.1
Аудио#1: 48 kHz, AC3 Dolby Digital, 3/2 (L,C,R,l,r) + LFE ch, ~448.00 kbps avg - Гаврилов
Аудио#2: 48 kHz, AC3 Dolby Digital, 2/0 (L,R) ch, ~192.00 kbps avg - Визгунов
Аудио#3: 48 kHz, AC3 Dolby Digital, 2/0 (L,R) ch, ~192.00 kbps avg - Кашкин

Премии и награды:

Специальная премия Национального совета обозревателей Мелу Гибсону.
Оскар, 1996 год
Победитель (5):
Лучший фильм
Лучший режиссер (Мэл Гибсон)
Лучшая работа оператора
Лучший монтаж звука
Лучший грим
Номинации (5):
Лучший сценарий
Лучшие костюмы
Лучший звук
Лучший монтаж
Лучший саундтрек к драматическому фильму
Золотой глобус, 1996 год
Победитель (1):
Лучший режиссер (Мэл Гибсон)
Номинации (3):
Лучший фильм (драма)
Лучший сценарий
Лучший саундтрек
Премия канала «MTV», 1996 год
Победитель (1):
Лучшая экшн-сцена
Номинации (2):
Лучший фильм
Лучшая мужская роль (Мэл Гибсон)
Британская академия, 1996 год
Победитель (3):
Лучшая работа оператора
Лучшие костюмы
Лучший звук
Номинации (4):
Лучший грим/прически
Лучшая работа художника-постановщика
Премия имени Дэвида Лина за достижения в режиссуре (Мэл Гибсон)
Премия имени Энтони Эскуита за достижения в создании музыки к фильму
Сатурн, 1996 год
Номинации (3):
Лучшие костюмы
Лучшая музыка
Лучший приключенческий фильм или боевик

Media Info

Формат : Matroska
Версия формата : Version 4 / Version 2
Размер файла : 5,17 Гбайт
Продолжительность : 2 ч. 57 м.
Общий поток : 4163 Кбит/сек
Название фильма : Braveheart.1995.x264.BDRip-AVC.Gavrilov.Vizgunov.Kashkin -=anton966=-
Дата кодирования : UTC 2014-12-28 07:47:29
Программа кодирования : mkvmerge v7.4.0 ('Circles') 64bit built on Dec 12 2014 12:19:56
Библиотека кодирования : libebml v1.3.0 + libmatroska v1.4.1
DURATION : 02:49:53.069000000
NUMBER_OF_FRAMES : 1013
NUMBER_OF_BYTES : 63301
_STATISTICS_WRITING_APP : mkvmerge v7.4.0 ('Circles') 64bit built on Dec 12 2014 12:19:56
_STATISTICS_WRITING_DATE_UTC : 2014-12-28 07:47:29
_STATISTICS_TAGS : BPS DURATION NUMBER_OF_FRAMES NUMBER_OF_BYTES
Видео
Идентификатор : 1
Формат : AVC
Формат/Информация : Advanced Video Codec
Профиль формата : [email protected]
Параметр CABAC формата : Да
Параметр ReFrames формата : 9 кадров
Идентификатор кодека : V_MPEG4/ISO/AVC
Продолжительность : 2 ч. 57 м.
Битрейт : 3248 Кбит/сек
Ширина : 1072 пикселя
Высота : 456 пикселей
Соотношение сторон : 2,35:1
Режим частоты кадров : Постоянный
Частота кадров : 23,976 кадра/сек
Цветовое пространство : YUV
Субдискретизация насыщенности : 4:2:0
Битовая глубина : 8 бит
Тип развёртки : Прогрессивная
Бит/(Пиксели*Кадры) : 0.277
Размер потока : 4,03 Гбайт (78%)
Заголовок : Braveheart.1995.BDRip-AVC (1072x456)
Библиотека кодирования : x264 core 142 r2491 24e4fed
Настройки программы : cabac=1 / ref=9 / deblock=1:-3:-3 / analyse=0x3:0x113 / me=umh / subme=11 / psy=1 / psy_rd=1.05:0.15 / mixed_ref=1 / me_range=32 / chroma_me=1 / trellis=2 / 8x8dct=1 / cqm=0 / deadzone=21,11 / fast_pskip=1 / chroma_qp_offset=-3 / threads=12 / lookahead_threads=3 / sliced_threads=0 / nr=0 / decimate=1 / interlaced=0 / bluray_compat=0 / constrained_intra=0 / bframes=12 / b_pyramid=2 / b_adapt=2 / b_bias=0 / direct=1 / weightb=1 / open_gop=0 / weightp=2 / keyint=250 / keyint_min=23 / scenecut=40 / intra_refresh=0 / rc=crf / mbtree=0 / crf=19.0 / qcomp=0.60 / qpmin=0 / qpmax=69 / qpstep=4 / ip_ratio=1.44 / pb_ratio=1.30 / aq=1:1.00
Язык : English
Default : Да
Forced : Нет
DURATION : 02:57:43.069000000
NUMBER_OF_FRAMES : 255658
NUMBER_OF_BYTES : 4436358510
_STATISTICS_WRITING_APP : mkvmerge v7.4.0 ('Circles') 64bit built on Dec 12 2014 12:19:56
_STATISTICS_WRITING_DATE_UTC : 2014-12-28 07:47:29
_STATISTICS_TAGS : BPS DURATION NUMBER_OF_FRAMES NUMBER_OF_BYTES
Аудио #1
Идентификатор : 2
Формат : AC-3
Формат/Информация : Audio Coding 3
Расширение режима : CM (complete main)
Параметр Endianness формата : Big
Идентификатор кодека : A_AC3
Продолжительность : 2 ч. 57 м.
Вид битрейта : Постоянный
Битрейт : 448 Кбит/сек
Каналы : 6 каналов
Расположение каналов : Front: L C R, Side: L R, LFE
Частота : 48,0 КГц
Битовая глубина : 16 бит
Метод сжатия : С потерями
Размер потока : 569 Мбайт (11%)
Заголовок : Gavrilov DD AC3 5.1 @ 448 kbps
Язык : Russian
Default : Да
Forced : Да
Аудио #2
Идентификатор : 3
Формат : AC-3
Формат/Информация : Audio Coding 3
Профиль формата : Dolby Digital
Расширение режима : CM (complete main)
Параметр Endianness формата : Big
Идентификатор кодека : A_AC3
Продолжительность : 2 ч. 57 м.
Вид битрейта : Постоянный
Битрейт : 192 Кбит/сек
Каналы : 2 канала
Расположение каналов : Front: L R
Частота : 48,0 КГц
Битовая глубина : 16 бит
Метод сжатия : С потерями
Размер потока : 244 Мбайт (5%)
Заголовок : Vizgunov DD AC3 2.0 @ 192 kbps
Язык : Russian
Default : Нет
Forced : Нет
Аудио #3
Идентификатор : 4
Формат : AC-3
Формат/Информация : Audio Coding 3
Профиль формата : Dolby Digital
Расширение режима : CM (complete main)
Параметр Endianness формата : Big
Идентификатор кодека : A_AC3
Продолжительность : 2 ч. 57 м.
Вид битрейта : Постоянный
Битрейт : 192 Кбит/сек
Каналы : 2 канала
Расположение каналов : Front: L R
Частота : 48,0 КГц
Битовая глубина : 16 бит
Метод сжатия : С потерями
Размер потока : 244 Мбайт (5%)
Заголовок : Kashkin DD AC3 2.0 @ 192 kbps
Язык : Russian
Default : Нет
Forced : Нет
Текст #1
Идентификатор : 5
Формат : UTF-8
Идентификатор кодека : S_TEXT/UTF8
Идентификатор кодека/Информация : UTF-8 Plain Text
Заголовок : Forced
Язык : Russian
Default : Нет
Forced : Нет
Текст #2
Идентификатор : 6
Формат : UTF-8
Идентификатор кодека : S_TEXT/UTF8
Идентификатор кодека/Информация : UTF-8 Plain Text
Язык : Russian
Default : Нет
Forced : Нет
Меню
00:00:00.000 : en:The Wits of Men
00:07:25.528 : en:Courage and a Free Heart
00:16:24.441 : en:The Trouble with Scotland
00:22:00.694 : en:A Nobleman's Rights
00:34:16.888 : en:No Other, Forever
00:39:49.678 : en:Application and Consequences of Laws
00:56:04.986 : en:Gathering to Rebel
01:00:01.264 : en:Ruthless Compromise
01:07:28.043 : en:Madmen and Spies
01:11:51.932 : en:Are You Ready for War
01:19:01.528 : en:Terms and Offers
01:33:03.202 : en:Guardian of Scotland
01:43:44.718 : en:Negotiating with a Princess
01:53:55.453 : en:Unity and Betrayal
01:58:58.464 : en:Lands of Death
02:17:15.477 : en:To Capture a Legend
02:24:18.900 : en:The Pledge of the Bruce
02:28:49.795 : en:The Crown's Price
02:34:12.409 : en:A Queens Plea for Mercy
02:36:32.091 : en:Freedom!
02:46:53.878 : en:Bleed with Me
02:50:43.066 : en:Credits

x264 log

Скриншоты

Примечание: За дорожку с переводом Кашкина большое спасибо Серый75.
Яндекс.Метрика
Рейтинг@Mail.ru