Эти невероятные музыканты, или Новые сновидения Шурика (Юрий Сааков) [1977 г., Комедия, Мюзикл, SATRip]

 

Создавать темы 28-Дек-2014 12:26

Эти невероятные музыканты, или Новые сновидения Шурика-- Производство: СССР
Режиссер: Юрий Сааков
Жанр: Комедия, Мюзикл
Год выпуска: 1977 г.
Продолжительность: 00:59:56
В ролях: Наталья Варлей, Георгий Вицин, Арчил Гомиашвили, Олег Даль, Александр Демьяненко, Валерий Золотухин, Савелий Крамаров, Наталья Крачковская, Леонид Куравлёв, Евгений Моргунов, Вячеслав Невинный, Светлана Светличная, Наталья Селезнёва, Алексей Смирнов-Описание:Телевизионный фильм-концерт по мотивам популярных комедий Леонида Гайдая «Операция «Ы» и другие приключения Шурика» (1965), «Кавказская пленница, или Новые приключения Шурика» (1966), «Бриллиантовая рука» (1968), «12 стульев» (1971), «Иван Васильевич меняет профессию» (1973), «Не может быть!» (1975).-

Качество видео: SATRip
Контейнер: MPG
Видео кодек: MPEG2
Аудио кодек: AC3
Видео: 720*576, 4289 Кбит/сек, 25,000 кадров/сек, 0.414Бит/(Пиксели*Кадры)
Аудио: 256 Кбит/сек, 2 канала, 48,0 КГц
Cубтитры: отсутствуют

Трек-лист:

1. Музыкальная сценка «Танцплощадка» (из «Кавказской пленницы») — все
2. Песенка о медведях (из «Кавказской пленницы») — Варлей
3. Фортепианная пьеса «Погоня» (из «Операции Ы») — Смирнов
4. «Разговор со счастьем» (из «Ивана Васильевича») — Куравлёв
5. Музыкальная картинка «Базар» (из «Операции Ы») — Моргунов
6. Песня, не вошедшая в фильм «12 стульев» — все
7. Музыкальная пьеса «Погоня» (из «Ивана Васильевича») — Даль
8. «С любовью встретиться» (из «Ивана Васильевича») — Селезнёва
9. Музыкальная пьеса «Погоня» (из «Операции Ы») — все
10. Колыбельная (из «Операции Ы») — Крачковская, Селезнёва, Варлей, Светличная
11. Музыкальная пьеса «Перекраска» (из «12 стульев») — Гомиашвили
12. Музыкальная пьеса «Хо-хо» (из «12 стульев») — все
13. Музыкальная картинка «Крушение надежд» (из «12 стульев») — Моргунов, Селезнёва, Варлей, Светличная
14. Музыкальная картинка (из «Не может быть») — Вицин
15. «Там, где любовь» (из «12 стульев») — Золотухин
16. Музыкальная пьеса «Погоня» (из «12 стульев») — Крачковская, Даль
17. Музыкальная пьеса «Погоня» (из «Ивана Васильевича») — Даль
18. «Помоги мне» (из «Бриллиантовой руки») — Светличная
19. Марш (из «Кавказской пленницы») — все
20. «Маруся» (из «Ивана Васильевича») — все
21. Музыкальная пьеса «Погоня» (из «Ивана Васильевича») — Даль
22. Музыкальная пьеса «Погоня» (из «Кавказской пленницы») — Варлей, Вицин, Моргунов
23. «Купидон» (из «Не может быть») — Даль
24. Музыкальная пьеса «Погоня в Васюках» (из «12 стульев») — Крамаров
25. Марш (из «Операции Ы») — все

Media Info

Общее
Полное имя : E:\Фильмы\Эти невероятные музыканты, или Новые сновидения Шурика.mpg
Формат : MPEG-PS
Размер файла : 1,94 Гбайт
Продолжительность : 59 м.
Режим общего битрейта : Переменный
Общий поток : 4637 Кбит/сек
Библиотека кодирования : (c) 1998-2008 Womble Multimedia, Inc. / MPEG Video Wizard (08/2008) / Dec 31 2008
Видео
Идентификатор : 224 (0xE0)
Формат : MPEG Video
Версия формата : Version 2
Профиль формата : [email protected]
Параметр BVOP формата : Да
Параметр матрицы формата : Выборочная
Параметр GOP формата : M=3, N=12
Format_Settings_PictureStructure : Frame
Продолжительность : 59 м.
Вид битрейта : Переменный
Битрейт : 4289 Кбит/сек
Максимальный битрейт : 9396 Кбит/сек
Ширина : 720 пикселей
Высота : 576 пикселей
Соотношение сторон : 4:3
Частота кадров : 25,000 кадров/сек
Стандарт вещания : PAL
Цветовое пространство : YUV
Субдискретизация насыщенности : 4:2:0
Битовая глубина : 8 бит
Тип развёртки : Чересстрочная
Порядок развёртки : Верхнее поле первое
Метод сжатия : С потерями
Бит/(Пиксели*Кадры) : 0.414
Временной код первого кадра : 00:00:00:00
Оригинал временного кода : Group of pictures header
Размер потока : 1,80 Гбайт (92%)
Библиотека кодирования : (c) 1998-2008 Womble Multimedia, Inc. / MPEG Video Wizard (08/2008) / Dec 31 2008
Аудио
Идентификатор : 189 (0xBD)-128 (0x80)
Формат : AC-3
Формат/Информация : Audio Coding 3
Расширение режима : CM (complete main)
Параметр Endianness формата : Big
Режим смешивания : DVD-Video
Продолжительность : 59 м.
Вид битрейта : Постоянный
Битрейт : 256 Кбит/сек
Каналы : 2 канала
Расположение каналов : Front: L R
Частота : 48,0 КГц
Битовая глубина : 16 бит
Метод сжатия : С потерями
Размер потока : 110 Мбайт (6%)
Скриншоты

Дополнительные скриншоты

Яндекс.Метрика
Рейтинг@Mail.ru