(Power Metal,Progressive Metal) Stratovarius - Elements Pt. 1 & 2 (2003)(Complete Edition) (3CD) - 2014 [FLAC, image+.cue, lossless]

 

Создавать темы 28-Дек-2014 04:36

-Stratovarius / Elements Pt. 1 & 2 (Complete Edition) (3CD)-- Год издания: 2003
Страна: Finland
Жанр: Power Metal, Progressive Metal
Продолжительность: 02:59:38-Год переиздания: 2014
Лейбл издания: E-A-R Music
Страна-выпуска диска: Germany
Номер по каталогу: 0209771EMU
Формат: FLAC
Битрейт аудио: lossless
Тип рипа: image+.cue
Наличие сканов в содержимом раздачи: да
-

Трэклист

CD 1 | 01:02:01

01.Eagleheart (03:50)
02.Soul Of A Vagabond (07:21)
03.Find Your Own Voice (05:13)
04.Fantasia (09:56)
05.Learning To Fly (06:22)
06.Papillon (07:00)
07.Stratofortress (03:25)
08.Elements (12:00)
09.A Drop In The Ocean (06:50)

CD 2 | 00:50:40

01.Alpha & Omega (06:37)
02.I Walk To My Own Song (05:03)
03.I'm Still Alive (04:50)
04.Season of Faith's Perfection (06:08)
05.Awaken The Giant (06:37)
06.Know The Difference (05:38)
07.Luminous (04:49)
08.Dreamweaver (05:53)
09.Liberty (05:01)

CD 3 | 01:06:56

01.Run Away (04:49)
02.Into Deep Blue (05:37)
03.Ride Like The Wind (04:50)
04.Papillon (French Version) (07:02)
05.Soul Of A Vagabond (Live) (07:52)
06.Destiny/Fantasia (Live) (14:05)
07.Forever (Live) (04:35)
08.Paradise (Live) (05:37)
09.Black Diamond (Live) (07:15)
10.Hunting High And Low (Live) (05:10)
-

Лог создания рипа

CD 1

Exact Audio Copy V1.0 beta 3 from 29. August 2011
EAC extraction logfile from 11. December 2014, 18:27
Stratovarius / Elements Pt. 1 & 2 - Complete Edition CD 1
Used drive  : HP      DVD Writer 1170d   Adapter: 0  ID: 0
Read mode               : Secure
Utilize accurate stream : Yes
Defeat audio cache      : Yes
Make use of C2 pointers : No
Read offset correction                      : 6
Overread into Lead-In and Lead-Out          : No
Fill up missing offset samples with silence : Yes
Delete leading and trailing silent blocks   : No
Null samples used in CRC calculations       : Yes
Used interface                              : Native Win32 interface for Win NT & 2000
Used output format              : User Defined Encoder
Selected bitrate                : 768 kBit/s
Quality                         : High
Add ID3 tag                     : No
Command line compressor         : C:\Program Files (x86)\Exact Audio Copy\FLAC\FLAC.EXE
Additional command line options : -V -8 -T "Date=%year%" -T "Genre=%genre%" -T"COMMENT=Ripped by Ungern666" -8 -V %source%
TOC of the extracted CD
Track |   Start  |  Length  | Start sector | End sector
---------------------------------------------------------
1  |  0:00.00 |  3:50.12 |         0    |    17261
2  |  3:50.12 |  7:21.10 |     17262    |    50346
3  | 11:11.22 |  5:13.59 |     50347    |    73880
4  | 16:25.06 |  9:56.26 |     73881    |   118606
5  | 26:21.32 |  6:22.11 |    118607    |   147267
6  | 32:43.43 |  7:00.63 |    147268    |   178830
7  | 39:44.31 |  3:25.52 |    178831    |   194257
8  | 43:10.08 | 12:00.60 |    194258    |   248317
9  | 55:10.68 |  6:50.18 |    248318    |   279085
Range status and errors
Selected range
Filename C:\EAC\Ungern666\Stratovarius - Elements Pt. 1 & 2 - Complete Edition CD 1.wav
Peak level 98.8 %
Extraction speed 7.5 X
Range quality 100.0 %
Test CRC E6926012
Copy CRC E6926012
Copy OK
No errors occurred
AccurateRip summary
Track  1  not present in database
Track  2  not present in database
Track  3  not present in database
Track  4  not present in database
Track  5  not present in database
Track  6  not present in database
Track  7  not present in database
Track  8  not present in database
Track  9  not present in database
None of the tracks are present in the AccurateRip database
End of status report

CD 2

Exact Audio Copy V1.0 beta 3 from 29. August 2011
EAC extraction logfile from 11. December 2014, 18:48
Stratovarius / Stratovarius - Elements Pt. 1 & 2 - Complete Edition CD 2
Used drive  : HP      DVD Writer 1170d   Adapter: 0  ID: 0
Read mode               : Secure
Utilize accurate stream : Yes
Defeat audio cache      : Yes
Make use of C2 pointers : No
Read offset correction                      : 6
Overread into Lead-In and Lead-Out          : No
Fill up missing offset samples with silence : Yes
Delete leading and trailing silent blocks   : No
Null samples used in CRC calculations       : Yes
Used interface                              : Native Win32 interface for Win NT & 2000
Used output format              : User Defined Encoder
Selected bitrate                : 768 kBit/s
Quality                         : High
Add ID3 tag                     : No
Command line compressor         : C:\Program Files (x86)\Exact Audio Copy\FLAC\FLAC.EXE
Additional command line options : -V -8 -T "Date=%year%" -T "Genre=%genre%" -T"COMMENT=Ripped by Ungern666" -8 -V %source%
TOC of the extracted CD
Track |   Start  |  Length  | Start sector | End sector
---------------------------------------------------------
1  |  0:00.00 |  6:37.56 |         0    |    29830
2  |  6:37.56 |  5:03.38 |     29831    |    52593
3  | 11:41.19 |  4:50.17 |     52594    |    74360
4  | 16:31.36 |  6:08.40 |     74361    |   102000
5  | 22:40.01 |  6:37.35 |    102001    |   131810
6  | 29:17.36 |  5:38.46 |    131811    |   157206
7  | 34:56.07 |  4:49.07 |    157207    |   178888
8  | 39:45.14 |  5:53.27 |    178889    |   205390
9  | 45:38.41 |  5:01.73 |    205391    |   228038
Range status and errors
Selected range
Filename C:\EAC\Ungern666\Stratovarius - Stratovarius - Elements Pt. 1 & 2 - Complete Edition CD 2.wav
Peak level 98.8 %
Extraction speed 5.7 X
Range quality 100.0 %
Test CRC EB4FED3F
Copy CRC EB4FED3F
Copy OK
No errors occurred
AccurateRip summary
Track  1  not present in database
Track  2  not present in database
Track  3  not present in database
Track  4  not present in database
Track  5  not present in database
Track  6  not present in database
Track  7  not present in database
Track  8  not present in database
Track  9  not present in database
None of the tracks are present in the AccurateRip database
End of status report

CD 3

Exact Audio Copy V1.0 beta 3 from 29. August 2011
EAC extraction logfile from 11. December 2014, 19:15
Stratovarius / Elements Pt. 1 & 2 - Complete Edition CD 3
Used drive  : HP      DVD Writer 1170d   Adapter: 0  ID: 0
Read mode               : Secure
Utilize accurate stream : Yes
Defeat audio cache      : Yes
Make use of C2 pointers : No
Read offset correction                      : 6
Overread into Lead-In and Lead-Out          : No
Fill up missing offset samples with silence : Yes
Delete leading and trailing silent blocks   : No
Null samples used in CRC calculations       : Yes
Used interface                              : Native Win32 interface for Win NT & 2000
Used output format              : User Defined Encoder
Selected bitrate                : 768 kBit/s
Quality                         : High
Add ID3 tag                     : No
Command line compressor         : C:\Program Files (x86)\Exact Audio Copy\FLAC\FLAC.EXE
Additional command line options : -V -8 -T "Date=%year%" -T "Genre=%genre%" -T"COMMENT=Ripped by Ungern666" -8 -V %source%
TOC of the extracted CD
Track |   Start  |  Length  | Start sector | End sector
---------------------------------------------------------
1  |  0:00.00 |  4:49.63 |         0    |    21737
2  |  4:49.63 |  5:37.07 |     21738    |    47019
3  | 10:26.70 |  4:50.58 |     47020    |    68827
4  | 15:17.53 |  7:02.69 |     68828    |   100546
5  | 22:20.47 |  7:52.42 |    100547    |   135988
6  | 30:13.14 | 14:05.21 |    135989    |   199384
7  | 44:18.35 |  4:35.25 |    199385    |   220034
8  | 48:53.60 |  5:37.16 |    220035    |   245325
9  | 54:31.01 |  7:15.19 |    245326    |   277969
10  | 61:46.20 |  5:10.07 |    277970    |   301226
Range status and errors
Selected range
Filename C:\EAC\Ungern666\Stratovarius - Elements Pt. 1 & 2 - Complete Edition CD 3.wav
Peak level 100.0 %
Extraction speed 6.3 X
Range quality 100.0 %
Test CRC D3E8E83B
Copy CRC D3E8E83B
Copy OK
No errors occurred
AccurateRip summary
Track  1  not present in database
Track  2  not present in database
Track  3  not present in database
Track  4  not present in database
Track  5  not present in database
Track  6  not present in database
Track  7  not present in database
Track  8  not present in database
Track  9  not present in database
Track 10  not present in database
None of the tracks are present in the AccurateRip database
End of status report

Индексная карта (non-compilant .cue)

CD 1

REM DATE 2014
REM DISCID 850E8909
REM COMMENT "ExactAudioCopy v1.0b3"
PERFORMER "Stratovarius"
TITLE "Elements Pt. 1 & 2 - Complete Edition CD 1"
FILE "Stratovarius - Elements Pt. 1 & 2 - Complete Edition CD 1.flac" WAVE
TRACK 01 AUDIO
TITLE "Eagleheart"
PERFORMER "Stratovarius"
INDEX 01 00:00:00
TRACK 02 AUDIO
TITLE "Soul Of A Vagabond"
PERFORMER "Stratovarius"
INDEX 01 03:50:12
TRACK 03 AUDIO
TITLE "Find Your Own Voice"
PERFORMER "Stratovarius"
INDEX 01 11:11:22
TRACK 04 AUDIO
TITLE "Fantasia"
PERFORMER "Stratovarius"
INDEX 00 16:22:52
INDEX 01 16:25:06
TRACK 05 AUDIO
TITLE "Learning To Fly"
PERFORMER "Stratovarius"
INDEX 01 26:21:32
TRACK 06 AUDIO
TITLE "Papillon"
PERFORMER "Stratovarius"
INDEX 00 32:40:69
INDEX 01 32:43:43
TRACK 07 AUDIO
TITLE "Stratofortress"
PERFORMER "Stratovarius"
INDEX 01 39:44:31
TRACK 08 AUDIO
TITLE "Elements"
PERFORMER "Stratovarius"
INDEX 01 43:10:08
TRACK 09 AUDIO
TITLE "A Drop In The Ocean"
PERFORMER "Stratovarius"
INDEX 01 55:10:68

CD 2

REM DATE 2014
REM DISCID 8C0BE009
REM COMMENT "ExactAudioCopy v1.0b3"
PERFORMER "Stratovarius"
TITLE "Stratovarius - Elements Pt. 1 & 2 - Complete Edition CD 2"
FILE "Stratovarius - Stratovarius - Elements Pt. 1 & 2 - Complete Edition CD 2.flac" WAVE
TRACK 01 AUDIO
TITLE "Alpha & Omega"
PERFORMER "Stratovarius"
INDEX 01 00:00:00
TRACK 02 AUDIO
TITLE "I Walk To My Own Song"
PERFORMER "Stratovarius"
INDEX 01 06:37:56
TRACK 03 AUDIO
TITLE "I'm Still Alive"
PERFORMER "Stratovarius"
INDEX 01 11:41:19
TRACK 04 AUDIO
TITLE "Season of Faith's Perfection"
PERFORMER "Stratovarius"
INDEX 01 16:31:36
TRACK 05 AUDIO
TITLE "Awaken The Giant"
PERFORMER "Stratovarius"
INDEX 00 22:38:42
INDEX 01 22:40:01
TRACK 06 AUDIO
TITLE "Know The Difference"
PERFORMER "Stratovarius"
INDEX 01 29:17:36
TRACK 07 AUDIO
TITLE "Luminous"
PERFORMER "Stratovarius"
INDEX 00 34:54:42
INDEX 01 34:56:07
TRACK 08 AUDIO
TITLE "Dreamweaver"
PERFORMER "Stratovarius"
INDEX 01 39:45:14
TRACK 09 AUDIO
TITLE "Liberty"
PERFORMER "Stratovarius"
INDEX 00 45:37:24
INDEX 01 45:38:41

CD 3

REM DATE 2014
REM DISCID 8C0FB00A
REM COMMENT "ExactAudioCopy v1.0b3"
PERFORMER "Stratovarius"
TITLE "Elements Pt. 1 & 2 - Complete Edition CD 3"
FILE "Stratovarius - Elements Pt. 1 & 2 - Complete Edition CD 3.flac" WAVE
TRACK 01 AUDIO
TITLE "Run Away"
PERFORMER "Stratovarius"
INDEX 01 00:00:00
TRACK 02 AUDIO
TITLE "Into Deep Blue"
PERFORMER "Stratovarius"
INDEX 01 04:49:63
TRACK 03 AUDIO
TITLE "Ride Like The Wind"
PERFORMER "Stratovarius"
INDEX 01 10:26:70
TRACK 04 AUDIO
TITLE "Papillon (French Version)"
PERFORMER "Stratovarius"
INDEX 00 15:15:02
INDEX 01 15:17:53
TRACK 05 AUDIO
TITLE "Soul Of A Vagabond (Live)"
PERFORMER "Stratovarius"
INDEX 00 22:19:17
INDEX 01 22:20:47
TRACK 06 AUDIO
TITLE "Destiny/Fantasia (Live)"
PERFORMER "Stratovarius"
INDEX 01 30:13:14
TRACK 07 AUDIO
TITLE "Forever (Live)"
PERFORMER "Stratovarius"
INDEX 01 44:18:35
TRACK 08 AUDIO
TITLE "Paradise (Live)"
PERFORMER "Stratovarius"
INDEX 01 48:53:60
TRACK 09 AUDIO
TITLE "Black Diamond (Live)"
PERFORMER "Stratovarius"
INDEX 01 54:31:01
TRACK 10 AUDIO
TITLE "Hunting High And Low (Live)"
PERFORMER "Stratovarius"
INDEX 01 61:46:20
-Stratovarius — финская англоязычная пауэр-метал-группа, образованная в 1984 году, изначально под названием Black Water. ---
Яндекс.Метрика
Рейтинг@Mail.ru