[ Сегодня на трекере фрилич! Идет свободное скачивание без начисления Download ]

Невероятное путешествие мистера Спивета / L'extravagant voyage du jeune et prodigieux T.S. Spivet (Жан-Пьер Жёне / Jean-Pierre Jeunet) [2013 г., драма, приключения, семейный, HDRip] Dub (Чистый звук) + Original (Fre)

 

Создавать темы 28-Дек-2014 04:31

-Невероятное путешествие мистера Спивета / L'extravagant voyage du jeune et prodigieux T.S. Spivet- Производство: Франция, Австралия, Канада
Год выпуска: 2013 г.
Жанр: драма, приключения, семейный
Продолжительность: 01:45:07
Мировая премьера: 28 сентября 2013
Российская премьера: 30 октября 2014, «Экспонента»
Перевод: Профессиональный (полное дублирование) [Чистый звук]
Оригинальный аудиопоток: французский-Режиссер: Жан-Пьер Жёне / Jean-Pierre Jeunet
В ролях: Кайл Кэтлетт, Хелена Бонем Картер, Роберт Мэйллет, Джуди Дэвис, Каллум Кит Ренни, Эмбер Гольдфарб, Ниам Уилсон, Джулиан Ричингс, Доминик Пинон, Джейкоб Дейвис-Описание: История о приключениях 12-летнего гения по имени Т. С. Спивет, избранные работы которого его приятель рискнул отправить в один известный вашингтонский институт. Неожиданно Спивету звонят из этого института с приглашением приехать забрать престижную награду и заодно выступить с докладом. Мальчик сбегает из дома, но ему нужно проехать через всю страну…- -Качество видео: HDRip
Контейнер: AVI
Видео кодек: XviD
Аудио кодек: AC3
Видео: 720x304 (2.37:1), 23.976 fps, XviD build 50 ~2016 kbps avg, 0.38 bit/pixel
Аудио: 48 kHz, AC3 Dolby Digital, 2/0 (L,R) ch, ~384 kbps - Rus
Аудио #2: 48 kHz, AC3 Dolby Digital, 3/2 (L,C,R,l,r) + LFE ch, ~384 kbps - Fre
Cубтитры: нет

Media Info

General
Complete name : D:\N.p.mistera.Spivita.2013.D.HDRip.2.05GB.avi
Format : AVI
Format/Info : Audio Video Interleave
Format profile : OpenDML
File size : 2.05 GiB
Duration : 1h 45mn
Overall bit rate : 2 791 Kbps
Writing application : VirtualDubMod 1.5.10.2 (build 2540/release)
Writing library : VirtualDubMod build 2540/release
Video
ID : 0
Format : MPEG-4 Visual
Format profile : Advanced [email protected]
Format settings, BVOP : 2
Format settings, QPel : No
Format settings, GMC : No warppoints
Format settings, Matrix : Default (MPEG)
Codec ID : XVID
Codec ID/Hint : XviD
Duration : 1h 45mn
Bit rate : 2 006 Kbps
Width : 720 pixels
Height : 304 pixels
Display aspect ratio : 2.35:1
Frame rate : 23.976 fps
Color space : YUV
Chroma subsampling : 4:2:0
Bit depth : 8 bits
Scan type : Progressive
Compression mode : Lossy
Bits/(Pixel*Frame) : 0.382
Stream size : 1.47 GiB (72%)
Writing library : XviD 1.2.1 (UTC 2008-12-04)
Audio #1
ID : 1
Format : AC-3
Format/Info : Audio Coding 3
Mode extension : CM (complete main)
Format settings, Endianness : Big
Codec ID : 2000
Duration : 1h 45mn
Bit rate mode : Constant
Bit rate : 384 Kbps
Channel(s) : 2 channels
Channel positions : Front: L R
Sampling rate : 48.0 KHz
Bit depth : 16 bits
Compression mode : Lossy
Stream size : 289 MiB (14%)
Alignment : Split accross interleaves
Interleave, duration : 42 ms (1.00 video frame)
Interleave, preload duratio : 500 ms
Audio #2
ID : 2
Format : AC-3
Format/Info : Audio Coding 3
Mode extension : CM (complete main)
Format settings, Endianness : Big
Codec ID : 2000
Duration : 1h 45mn
Bit rate mode : Constant
Bit rate : 384 Kbps
Channel(s) : 6 channels
Channel positions : Front: L C R, Side: L R, LFE
Sampling rate : 48.0 KHz
Bit depth : 16 bits
Compression mode : Lossy
Stream size : 289 MiB (14%)
Alignment : Split accross interleaves
Interleave, duration : 42 ms (1.00 video frame)
Interleave, preload duratio : 500 ms

Скриншоты

Яндекс.Метрика
Рейтинг@Mail.ru