Звездная карта / Maps to the Stars (Дэвид Кроненберг / David Cronenberg) [2014 г., драма, HDRip] MVO (Чистый звук)

 

Создавать темы 28-Дек-2014 04:24

-Звездная карта / Maps to the Stars- Производство: Канада, США, Германия, Франция
Год выпуска: 2014 г.
Жанр: драма
Продолжительность: 01:47:17
Мировая премьера: 19 мая 2014
Российская премьера: 18 декабря 2014, «Top Film Distribution»
Перевод: Профессиональный (многоголосый, закадровый) [Чистый звук]-Режиссер: Дэвид Кроненберг / David Cronenberg
В ролях: Джулианна Мур, Миа Васиковска, Джон Кьюсак, Роберт Паттинсон, Эван Бёрд, Оливия Уильямс,, Кьяра Гласко ,Сара Гадон, Доун Гринхалг, Джонатан Уоттон-Описание: Место действия — два голливудских дома. В одном живет стареющая актриса, которая надеется сыграть роль собственной давно погибшей матери — легенды черно-белого кино. Другой особняк — резиденция сверхуспешного психотерапевта, его жены и их сына — 13-летнего миллионера, наркомана и звезды. В оба дома проникает девушка из Флориды, которая подружилась в твиттере с Кэрри Фишер и надеется с ее помощью покорить Лос-Анджелес.- -Качество видео: HDRip
Контейнер: AVI
Видео кодек: XviD
Аудио кодек: AC3
Видео: 720x384 (1.88:1), 25 fps, XviD build 50 ~1549 kbps avg, 0.22 bit/pixel
Аудио: 48 kHz, AC3 Dolby Digital, 2/0 (L,R) ch, ~384 kbps
Cубтитры: отсутствуют

Media Info

General
Complete name : D:\Zvezdna9.K4rta.2014.P.HDRip.1400MB.avi
Format : AVI
Format/Info : Audio Video Interleave
File size : 1.46 GiB
Duration : 1h 47mn
Overall bit rate : 1 943 Kbps
Writing application : VirtualDubMod 1.5.10.2 (build 2540/release)
Writing library : VirtualDubMod build 2540/release
Video
ID : 0
Format : MPEG-4 Visual
Format profile : Advanced [email protected]
Format settings, BVOP : 2
Format settings, QPel : No
Format settings, GMC : No warppoints
Format settings, Matrix : Default (MPEG)
Codec ID : XVID
Codec ID/Hint : XviD
Duration : 1h 47mn
Bit rate : 1 550 Kbps
Width : 720 pixels
Height : 384 pixels
Display aspect ratio : 1.85:1
Frame rate : 25.000 fps
Color space : YUV
Chroma subsampling : 4:2:0
Bit depth : 8 bits
Scan type : Progressive
Compression mode : Lossy
Bits/(Pixel*Frame) : 0.224
Stream size : 1.16 GiB (80%)
Writing library : XviD 1.2.1 (UTC 2008-12-04)
Audio
ID : 1
Format : AC-3
Format/Info : Audio Coding 3
Mode extension : CM (complete main)
Format settings, Endianness : Big
Codec ID : 2000
Duration : 1h 47mn
Bit rate mode : Constant
Bit rate : 384 Kbps
Channel(s) : 2 channels
Channel positions : Front: L R
Sampling rate : 48.0 KHz
Bit depth : 16 bits
Compression mode : Lossy
Stream size : 295 MiB (20%)
Alignment : Split accross interleaves
Interleave, duration : 40 ms (1.00 video frame)
Interleave, preload duratio : 500 ms

Скриншоты

Яндекс.Метрика
Рейтинг@Mail.ru