Изумрудный лес / The Emerald Forest (Джон Бурмэн / John Boorman) [1985 г., Боевик, драма, приключения, HDRip-AVC] MVO + Original (Eng)

 

Создавать темы 28-Дек-2014 04:23

-Изумрудный лес / The Emerald Forest-- Производство: Великобритания
Год выпуска: 1985 г.
Жанр: Боевик, драма, приключения
Продолжительность: 01:53:59
Перевод: Профессиональный (многоголосый, закадровый)
Оригинальный аудиопоток: английский
Режиссер: Джон Бурмэн / John Boorman-В ролях: Пауэрс Бут, Мег Фостер, Уильям Родригез, Эсте Чэндлер, Чарли Бурмен, Дира Паис, Эдуарду Конди, Ариэл Коэлью, Питер Маринкер-Описание: Место действия фильма — бразильские джунгли. Племя индейцев похищает пятилетнего мальчика, в то время как его отец, американский инженер, занят строительством дамбы.
В течение десяти лет отец ищет сына, и после многочисленных приключений, полных экзотики, они встречаются в дебрях Амазонки.-
Качество видео: HDRip-AVC
Контейнер: MKV
Видео кодек: H.264
Аудио кодек: AC3
Видео: 720х306, 2487 Kbps, 23.976 кадр/с, 0.471 bt/px
Аудио: AC-3, 448 Kbps, 6 ch, 48.0 KHz Rus
Аудио: AC-3, 448 Kbps, 2 ch, 48.0 KHz Eng Original
Cубтитры: отсутствуют

Доп. информация

Рип сделан из BDRip 1080P найденый в сети.

Media Info

G:\загрузки\The_Emerald_Forest_[Pirat.ca].torrent.mkv
General
Unique ID : 241248234008175473814704873628406336527 (0xB57EB84433DAC058B933B8E1FD4B4C0F)
Complete name : G:\загрузки\The_Emerald_Forest_[Pirat.ca].torrent.mkv
Format : Matroska
Format version : Version 1
File size : 2.75 GiB
Duration : 1h 53mn
Overall bit rate : 3 452 Kbps
Encoded date : UTC 2014-12-27 19:46:43
Writing application : mkvmerge v2.5.3 ('Boogie') built on Mar 7 2009 15:00:41
Writing library : libebml v0.7.7 + libmatroska v0.8.1
Video #1
ID : 1
Format : AVC
Format/Info : Advanced Video Codec
Format profile : [email protected]
Format settings, CABAC : Yes
Format settings, ReFrames : 12 frames
Codec ID : V_MPEG4/ISO/AVC
Duration : 1h 53mn
Bit rate : 2 487 Kbps
Width : 720 pixels
Height : 306 pixels
Display aspect ratio : 2.35:1
Frame rate mode : Constant
Frame rate : 23.976 fps
Color space : YUV
Chroma subsampling : 4:2:0
Bit depth : 8 bits
Scan type : Progressive
Bits/(Pixel*Frame) : 0.471
Stream size : 1.98 GiB (72%)
Writing library : x264 core 130 r2273 b3065e6
Encoding settings : cabac=1 / ref=12 / deblock=1:-1:-1 / analyse=0x3:0x133 / me=umh / subme=11 / psy=1 / psy_rd=1.00:0.10 / mixed_ref=1 / me_range=24 / chroma_me=1 / trellis=2 / 8x8dct=1 / cqm=0 / deadzone=21,11 / fast_pskip=1 / chroma_qp_offset=-3 / threads=6 / lookahead_threads=1 / sliced_threads=0 / nr=0 / decimate=1 / interlaced=0 / bluray_compat=0 / constrained_intra=0 / bframes=8 / b_pyramid=2 / b_adapt=2 / b_bias=0 / direct=1 / weightb=1 / open_gop=0 / weightp=2 / keyint=250 / keyint_min=23 / scenecut=40 / intra_refresh=0 / rc_lookahead=50 / rc=crf / mbtree=1 / crf=18.0 / qcomp=0.60 / qpmin=0 / qpmax=51 / qpstep=4 / ip_ratio=1.40 / aq=1:1.00
Language : English
Default : Yes
Forced : No
Audio #2
ID : 2
Format : AC-3
Format/Info : Audio Coding 3
Mode extension : CM (complete main)
Format settings, Endianness : Big
Codec ID : A_AC3
Duration : 1h 53mn
Bit rate mode : Constant
Bit rate : 448 Kbps
Channel(s) : 6 channels
Channel positions : Front: L C R, Side: L R, LFE
Sampling rate : 48.0 KHz
Bit depth : 16 bits
Compression mode : Lossy
Stream size : 365 MiB (13%)
Language : Russian
Default : Yes
Forced : No
Audio #3
ID : 3
Format : AC-3
Format/Info : Audio Coding 3
Mode extension : CM (complete main)
Format settings, Endianness : Big
Codec ID : A_AC3
Duration : 1h 53mn
Bit rate mode : Constant
Bit rate : 448 Kbps
Channel(s) : 2 channels
Channel positions : Front: L R
Sampling rate : 48.0 KHz
Bit depth : 16 bits
Compression mode : Lossy
Stream size : 365 MiB (13%)
Language : English
Default : No
Forced : No

log x.264

x264 [info]: frame I:982   Avg QP:16.22  size: 60672
x264 [info]: frame P:33687 Avg QP:19.74 size: 24904
x264 [info]: frame B:129311 Avg QP:22.98 size: 9930
x264 [info]: consecutive B-frames: 1.0% 1.0% 4.2% 28.0% 19.3% 36.4% 5.2% 2.6% 2.3%
x264 [info]: mb I I16..4: 9.3% 51.5% 39.2%
x264 [info]: mb P I16..4: 0.3% 17.7% 4.8% P16..4: 22.0% 29.8% 18.0% 5.2% 1.0% skip: 1.1%
x264 [info]: mb B I16..4: 0.1% 6.6% 1.0% B16..8: 33.6% 23.4% 6.4% direct: 9.0% skip:20.0% L0:41.1% L1:39.3% BI:19.5%
x264 [info]: 8x8 transform intra:80.6% inter:55.2%
x264 [info]: coded y,uvDC,uvAC intra: 93.6% 79.2% 42.8% inter: 47.1% 29.6% 4.5%
x264 [info]: i16 v,h,dc,p: 17% 13% 23% 47%
x264 [info]: i8 v,h,dc,ddl,ddr,vr,hd,vl,hu: 11% 7% 13% 9% 12% 12% 12% 11% 13%
x264 [info]: i4 v,h,dc,ddl,ddr,vr,hd,vl,hu: 37% 5% 5% 6% 10% 10% 9% 9% 9%
x264 [info]: i8c dc,h,v,p: 35% 30% 21% 15%
x264 [info]: Weighted P-Frames: Y:10.3% UV:3.9%
x264 [info]: ref P L0: 39.6% 14.9% 16.2% 6.7% 5.6% 3.9% 3.7% 2.2% 2.1% 1.7% 1.7% 1.6% 0.2% 0.0%
x264 [info]: ref B L0: 74.1% 10.1% 5.1% 2.8% 2.1% 1.7% 1.5% 1.0% 0.9% 0.5% 0.2%
x264 [info]: ref B L1: 93.2% 6.8%
x264 [info]: kb/s:2552.99
x264 [total]: encoded 163980 frames, 10.82 fps, 2552.99 kb/s

Скриншоты

Яндекс.Метрика
Рейтинг@Mail.ru