Убить человека / Matar a un hombre (2014) HDRip [VO]

 

Создавать темы 27-Дек-2014 17:35

Убить человека / Matar a un hombre (2014) HDRip- Год выпуска: 2014
Производство: Чили, Франция, Film Factory Entertainment
Жанр: Драма, Криминал
Режиссер: Алехандро Фернандез Альмендрас
Продюсер: Гийом Де Сиель, Эдуардо Виллалобос
Актеры: Дэниэл Кандия, Алехандра Яньес, Дэниэл Антивило, Ариэль Мателуна, Jennifer Salas, Don Willie, Paula Leoncini, Daniel Urrutia, Эдуардо Виллалобос, Sol Banoviez
Описание фильма:
Район, где живет добропорядочный семьянин, представитель среднего класса Хорхе, оказывается во власти уличных хулиганов. Однажды ночью, возвращаясь с работы, герой подвергается нападению. Сын Хорхе пытается защитить отца, но получает огнестрельное ранение. Вместе с супругой Мартой Хорхе ищет поддержку у правоохранительных органов, но сталкивается с беззаконием и бесконечной чередой бюрократических процедур. Беззащитные перед бандитами, герои фильма мучаются от страха и унижений, пока Хорхе, оказавшийся загнанным в угол, не осознает, что должен взять ситуацию в свои руки.
Перевод: Любительский (одноголосый, закадровый)
Озвучка / Автор перевода: Павел Морозов aka PashaUp
Субтитры: Отсутствуют

Дата мировой премьеры: 17 января 2014
Дата российской премьеры: 13 июня 2014
Продолжительность: 01:22:04
Качество видео: HDRip
Видеокодек: Xvid
Битрейт видео: ~1978 Кбит/сек
Размер кадра: 720х304
Аудиокодек: AC3 6 каналов
Битрейт аудио: 448 Кбит/сек
Сэмпл: Скачать

Mediainfo:

Общее
Полное имя                               : K:\utorrent\killaman_2014.HDRip.avi
Формат                                   : AVI
Формат/Информация                        : Audio Video Interleave
Размер файла                             : 1,40 Гбайт
Продолжительность                        : 1 ч. 22 м.
Общий поток                              : 2435 Кбит/сек
Программа кодирования                    : VirtualDubMod 1.5.10.2 (build 2540/release)
Библиотека кодирования                   : VirtualDubMod build 2540/release
Видео
Идентификатор                            : 0
Формат                                   : MPEG-4 Visual
Профиль формата                          : Advanced [email protected]
Параметр BVOP формата                    : 2
Параметр QPel формата                    : Нет
Параметр GMC формата                     : Без точки перехода
Параметр матрицы формата                 : Default (MPEG)
Идентификатор кодека                     : XVID
Идентификатор кодека/Подсказка           : XviD
Продолжительность                        : 1 ч. 22 м.
Битрейт                                  : 1978 Кбит/сек
Ширина                                   : 720 пикселей
Высота                                   : 304 пикселя
Соотношение сторон                       : 2,35:1
Частота кадров                           : 24,000 кадра/сек
Цветовое пространство                    : YUV
Субдискретизация насыщенности            : 4:2:0
Битовая глубина                          : 8 бит
Тип развёртки                            : Прогрессивная
Метод сжатия                             : С потерями
Бит/(Пиксели*Кадры)                      : 0.377
Размер потока                            : 1,13 Гбайт (81%)
Библиотека кодирования                   : XviD 1.2.1 (UTC 2008-12-04)
Аудио
Идентификатор                            : 1
Формат                                   : AC-3
Формат/Информация                        : Audio Coding 3
Расширение режима                        : CM (complete main)
Параметр Endianness формата              : Big
Идентификатор кодека                     : 2000
Продолжительность                        : 1 ч. 22 м.
Вид битрейта                             : Постоянный
Битрейт                                  : 448 Кбит/сек
Каналы                                   : 6 каналов
Расположение каналов                     : Front: L C R, Side: L R, LFE
Частота                                  : 48,0 КГц
Битовая глубина                          : 16 бит
Метод сжатия                             : С потерями
Размер потока                            : 263 Мбайт (18%)
Выравнивание                             : Разделение по промежуткам
Продолжительность промежутка             : 42  мс. (1,00 видеокадр)
Время предзагрузки промежутка            : 500  мс.
--Время раздачи: до 5 первых сидов
Яндекс.Метрика
Рейтинг@Mail.ru