[ Сегодня на трекере фрилич! Идет свободное скачивание без начисления Download ]

Григорий Лепс - Дуэты (2014) Переиздание [APE|Lossless]<Chanson, Pop>

 

Создавать темы 27-Дек-2014 15:51

Григорий Лепс - Дуэты- Год: 2014
Жанр: Chanson, Pop
Продолжительность: 00:58:14
Кодек: APE
Битрейт: Lossless
Тип рипа: image+.cue+log
Треклист:
01.Обернитесь (с В. Меладзе)
02.Не жди меня (со Славой)
03.Я тебе не верю (с И. Аллегровой)
04.Измены (с В. Ильинской)
05.Гоп-стоп (с А. Розенбаумом)
06.Птица – молодость моя (с Д. Гурцкой)
07.Она не твоя (со С. Пьехой)
08.Ангел завтрашнего дня (с И. Аллегровой)
09.Лондон (дуэт с Тимати)
10.Вечерняя застольная (с А. Розембаумом и И. Кобзоном)
11.Брат Никотин с Артемом Лоиком и Тимати NEW
12.Плен с Артемом Лоиком -NEW
13.Зеркала с Ани Лорак -NEW

Отчёт ЕАС&#58;

Exact Audio Copy V1.0 beta 3 from 29. August 2011
Отчёт EAC об извлечении, выполненном 13. декабря 2014, 1:30
Григорий Лепс / Дуэты (Переиздание)
Дисковод: ATAPI   iHBS112   2   Adapter: 3  ID: 1
Режим чтения                 : Достоверность
Использование точного потока : Да
Отключение кэша аудио        : Да
Использование указателей C2  : Нет
Коррекция смещения при чтении                     : 6
Способность читать области Lead-in и Lead-out     : Нет
Заполнение пропущенных сэмплов тишиной            : Да
Удаление блоков с тишиной в начале и конце        : Нет
При вычислениях CRC использовались нулевые сэмплы : Да
Интерфейс                                         : Встроенный Win32-интерфейс для Win NT/2000
Выходной формат          : Пользовательский кодировщик
Выбранный битрейт        : 128 kBit/s
Качество                 : Высокий
Добавление ID3-тега      : Нет
Утилита сжатия           : C:\Program Files\Monkey's Audio\MAC.exe
Дополнительные параметры : %source% %dest% -c3000
TOC извлечённого CD
Трек |   Старт  | Длительность | Начальный сектор | Конечный сектор
---------------------------------------------------------------------
1  |  0:00.00 |    3:51.04   |           0      |      17328
2  |  3:51.04 |    3:57.19   |       17329      |      35122
3  |  7:48.23 |    4:06.01   |       35123      |      53573
4  | 11:54.24 |    3:45.38   |       53574      |      70486
5  | 15:39.62 |    3:50.52   |       70487      |      87788
6  | 19:30.39 |    4:27.74   |       87789      |     107887
7  | 23:58.38 |    3:41.67   |      107888      |     124529
8  | 27:40.30 |    4:49.59   |      124530      |     146263
9  | 32:30.14 |    4:25.03   |      146264      |     166141
10  | 36:55.17 |    4:01.47   |      166142      |     184263
11  | 40:56.64 |    4:02.25   |      184264      |     202438
12  | 44:59.14 |    4:23.55   |      202439      |     222218
13  | 49:22.69 |    3:45.12   |      222219      |     239105
Характеристики диапазона извлечения и сообщения об ошибках
Выбранный диапазон
Имя файла C:\Users\Yan7Vera\Desktop\Григорий Лепс - Дуэты (Переиздание).wav
Пиковый уровень 97.9 %
Скорость извлечения 8.5 X
Качество диапазона 100.0 %
CRC теста 4E5AC53E
CRC копии 4E5AC53E
Копирование... OK
Ошибок не произошло
Конец отчёта
==== Контрольная сумма отчёта B25D5F40EA40628015460F497B63B015898B53A0BF78A48F767740A72B0940FA ====

Отчёт auCDtect Task manager&#58;

-----------------------
DON'T MODIFY THIS FILE
-----------------------
PERFORMER: auCDtect Task Manager, ver. 1.6.0 RC1 build 1.6.0.1
Copyright (c) 2008-2010 y-soft. All rights reserved
http://y-soft.org
ANALYZER: auCDtect: CD records authenticity detector, version 0.8.2
Copyright (c) 2004 Oleg Berngardt. All rights reserved.
Copyright (c) 2004 Alexander Djourik. All rights reserved.
FILE: Григорий Лепс - Дуэты (Переиздание).ape
Size: 390174440 Hash: 91F56136E6DFF7A342BD8939E514A8D0 Accuracy: -m8
Conclusion: CDDA 100%
Signature: D475C20E822D0CBBE53E375CE73ED242AD58890E
- -
Яндекс.Метрика
Рейтинг@Mail.ru