СМЕШНЯГИ! (Шоу "Уральских пельменей") [2009-2014 г., Юмор]

 

Создавать темы 27-Дек-2014 15:32

СМЕШНЯГИ! (Шоу "Уральских пельменей")
Год выпуска: 2009-2014
Жанр: Юмор
В ролях: Сергей Светлаков, Андрей Рожков, Дмитрий Брекоткин, Дмитрий Соколов, Сергей Нетиевский, Вячеслав Мясников, Максим Ярица, Сергей Исаев
Описание: Весёлые парни в мандариновых рубашках не дадут соскучиться и подарят отличное настроение всей семье. У юмора «Уральских пельменей» нет возрастных ограничений, они избегают «шуток ниже пояса» и на их концертах пятилетние дети смеются рядом с 50-ти летними взрослыми.
Новое комедийное шоу включает в себя как самостоятельные сценические истории, так и импровизации с залом, а также смешные сценки со звёздами, которые пришли посмотреть на любимую команду и неожиданно для себя оказались на сцене.

Список выпусков

Гори оно все... конем!

Продолжительность: 01:11:34
Размер: 1,38 Gb
Описание:Недавно на голову одного из наших авторов упал унитаз. Это и послужило толчком для написания этого шоу. На протяжении многих лет Россию сотрясают социальные, политические и экономические проблемы. Но это – Россия! Нам всё до лампочки! – говорили электрики. Нам всё по барабану – говорили музыканты. В гробу я это видел – говорили члены Политбюро! Именно благодаря русскому, мягко говоря, пофигизму, мы и выжили. Наш русский «авось» и стал знаменем новой программы «Уральских Пельменей». Что бы ни было – « Да, гори оно всё …конём!»»
Качество: SATRip
Формат: AVI
Видео кодек: XviD
Аудио кодек: MPEG Audio
Видео: 704x528 25 fps ~2567 kbps avg 0.28 bit/pixel
Аудио: 48000 Hz ~192.00 kbps avg

Media Info

Общее
Формат : AVI
Формат/Информация : Audio Video Interleave
Размер файла : 1,38 ГиБ
Продолжительность : 1 ч. 11 м.
Общий поток : 2769 Кбит/сек
Библиотека кодирования : VirtualDub build 32618/release
Видео
Идентификатор : 0
Формат : MPEG-4 Visual
Профайл формата : Advanced [email protected]
Параметры BVOP формата : Да
Параметры QPel формата : Нет
Параметры GMC формата : Без точки перехода
Параметры матрицы формата : Выборочная
Идентификатор кодека : DX50
Идентификатор кодека/Подсказка : DivX 5
Продолжительность : 1 ч. 11 м.
Битрейт : 2567 Кбит/сек
Ширина : 704 пикс.
Высота : 528 пикс.
Соотношение кадра : 4:3
Частота кадров : 25,000 кадр/сек
ColorSpace : YUV
ChromaSubsampling : 4:2:0
BitDepth/String : 8 бит
Тип развёртки : Прогрессивная
Бит/(Пиксели*Кадры) : 0.276
Размер потока : 1,28 ГиБ (93%)
Библиотека кодирования : XviD 1.3.0.dev55
Аудио
Идентификатор : 1
Формат : MPEG Audio
Версия формата : Version 1
Профайл формата : Layer 3
Режим : Joint stereo
Format_Settings_ModeExtension : MS Stereo
Идентификатор кодека : 55
Идентификатор кодека/Подсказка : MP3
Продолжительность : 1 ч. 11 м.
Вид битрейта : Постоянный
Битрейт : 192 Кбит/сек
Канал(ы) : 2 канала(ов)
Частота : 48,0 КГц
Размер потока : 98,3 МиБ (7%)
Выравнивание : Разделение по промежуткам
Продолжительность промежутка : 40 мс. (1,00 видеокадр)
Время предзагрузки промежутка : 500 ms

Скриншоты



Смешняги

Продолжительность: 01:11:20
Размер: 714 Mb
Описание:Окунитесь в мир веселых эксцентричных парней в цветастых одеждах! Именно в такой яркой раскраске снаружи и «внутри» в 1995 году «Уральские пельмени» появились в КВН и с тех пор стали революционерами юмора на протяжении многих лет. Этот заряд остался в них до сих пор. Они не бояться быть дурными - ведь «Дураки умничают, а умные дурачатся!» Программа «Смешняги» пропитана нетрадиционными подходами к юмору, собственно тем, чем и отличается творчество «Пельменей» от других.
Качество: SATRip
Формат: AVI
Видео кодек: XviD
Аудио кодек: MPEG Audio
Видео: 640x480 25 fps ~1262 kbps avg 0.16 bit/pixel
Аудио: 48000 Hz ~128.00 kbps avg

Media Info

Общее
Формат : AVI
Формат/Информация : Audio Video Interleave
Размер файла : 714 МиБ
Продолжительность : 1 ч. 11 м.
Общий поток : 1400 Кбит/сек
Программа кодирования : VirtualDubModRus 1.5.10.2 (build 2542/release)
Библиотека кодирования : VirtualDubMod build 2542/release
Видео
Идентификатор : 0
Формат : MPEG-4 Visual
Профайл формата : Advanced [email protected]
Параметры BVOP формата : Да
Параметры QPel формата : Нет
Параметры GMC формата : Без точки перехода
Параметры матрицы формата : Default (MPEG)
Режим смешивания : Сжатый битовый поток
Идентификатор кодека : XVID
Идентификатор кодека/Подсказка : XviD
Продолжительность : 1 ч. 11 м.
Битрейт : 1262 Кбит/сек
Ширина : 640 пикс.
Высота : 480 пикс.
Соотношение кадра : 4:3
Частота кадров : 25,000 кадр/сек
ColorSpace : YUV
ChromaSubsampling : 4:2:0
BitDepth/String : 8 бит
Тип развёртки : Прогрессивная
Бит/(Пиксели*Кадры) : 0.164
Размер потока : 644 МиБ (90%)
Библиотека кодирования : XviD 1.2.1 (UTC 2008-12-04)
Аудио
Идентификатор : 1
Формат : MPEG Audio
Версия формата : Version 1
Профайл формата : Layer 3
Идентификатор кодека : 55
Идентификатор кодека/Подсказка : MP3
Продолжительность : 1 ч. 11 м.
Вид битрейта : Постоянный
Битрейт : 128 Кбит/сек
Канал(ы) : 2 канала(ов)
Частота : 48,0 КГц
Размер потока : 65,3 МиБ (9%)
Выравнивание : Соединение по промежуткам
Продолжительность промежутка : 40 мс. (1,00 видеокадр)
Время предзагрузки промежутка : 504 ms

Скриншоты



Падал прошлогодний смех

Продолжительность: 01:10:33
Размер: 1,07 Gb
Описание:
Качество: SATRip
Формат: AVI
Видео кодек: XviD
Аудио кодек: MPEG Audio
Видео: 720x544 25 fps ~2074 kbps avg 0.21 bit/pixel
Аудио: 48000 Hz ~96.00 kbps avg

Media Info

Общее
Формат : AVI
Формат/Информация : Audio Video Interleave
Размер файла : 1,07 ГиБ
Продолжительность : 1 ч. 10 м.
Общий поток : 2179 Кбит/сек
Библиотека кодирования : VirtualDub build 32661/release
Видео
Идентификатор : 0
Формат : MPEG-4 Visual
Профайл формата : Advanced [email protected]
Параметры BVOP формата : Да
Параметры QPel формата : Нет
Параметры GMC формата : Без точки перехода
Параметры матрицы формата : Default (MPEG)
Режим смешивания : Сжатый битовый поток
Идентификатор кодека : XVID
Идентификатор кодека/Подсказка : XviD
Продолжительность : 1 ч. 10 м.
Битрейт : 2074 Кбит/сек
Ширина : 720 пикс.
Высота : 544 пикс.
Соотношение кадра : 4:3
Частота кадров : 25,000 кадр/сек
ColorSpace : YUV
ChromaSubsampling : 4:2:0
BitDepth/String : 8 бит
Тип развёртки : Прогрессивная
Бит/(Пиксели*Кадры) : 0.212
Размер потока : 1,02 ГиБ (95%)
Библиотека кодирования : XviD 1.2.1 (UTC 2008-12-04)
Аудио
Идентификатор : 1
Формат : MPEG Audio
Версия формата : Version 1
Профайл формата : Layer 3
Идентификатор кодека : 55
Идентификатор кодека/Подсказка : MP3
Продолжительность : 1 ч. 10 м.
Вид битрейта : Постоянный
Битрейт : 96,0 Кбит/сек
Канал(ы) : 1 канал
Частота : 48,0 КГц
Размер потока : 48,4 МиБ (4%)
Выравнивание : Разделение по промежуткам
Продолжительность промежутка : 40 мс. (1,00 видеокадр)
Время предзагрузки промежутка : 500 ms

Скриншоты



Агенты 0.7

Продолжительность: 01:10:36
Размер: 892 Mb
Описание:Кризис постучался и к вам? Вас сократили, уволили, отправили в длительный отпуск? Если Вы решили залить горе, значит вы стали агентом 0,7 !!! Беспощадная машина юмора "УРАЛЬСКИЕ ПЕЛЬМЕНИ" представляют новый долгожданный концерт для всех сокращенных. Информацию сообщат Агенты 0,7: Крепленый, Сухой, Полусухой, Игристый, Безалкогольный , Шипучий, Марочный и Коллекционный.
Качество: SATRip
Формат: AVI
Видео кодек: DivX
Аудио кодек: MPEG Audio
Видео: 640x480 25 fps ~1501 kbps avg 0.20 bit/pixel
Аудио: 48000 Hz ~256.00 kbps avg

Media Info

Общее
Формат : AVI
Формат/Информация : Audio Video Interleave
Размер файла : 892 МиБ
Продолжительность : 1 ч. 10 м.
Общий поток : 1766 Кбит/сек
Программа кодирования : VirtualDubModRus 1.5.10.1 (build 2439/release)
Библиотека кодирования : VirtualDubMod build 2439/release
Видео
Идентификатор : 0
Формат : MPEG-4 Visual
Параметры BVOP формата : Да
Параметры QPel формата : Нет
Параметры GMC формата : Без точки перехода
Параметры матрицы формата : Default (H.263)
Режим смешивания : Сжатый битовый поток
Идентификатор кодека : DX50
Идентификатор кодека/Подсказка : DivX 5
Продолжительность : 1 ч. 10 м.
Битрейт : 1501 Кбит/сек
Ширина : 640 пикс.
Высота : 480 пикс.
Соотношение кадра : 4:3
Частота кадров : 25,000 кадр/сек
ColorSpace : YUV
ChromaSubsampling : 4:2:0
BitDepth/String : 8 бит
Тип развёртки : Прогрессивная
Бит/(Пиксели*Кадры) : 0.195
Размер потока : 758 МиБ (85%)
Библиотека кодирования : DivX 6.8.5 (UTC 2009-08-20)
Аудио
Идентификатор : 1
Формат : MPEG Audio
Версия формата : Version 1
Профайл формата : Layer 2
Идентификатор кодека : 50
Продолжительность : 1 ч. 10 м.
Вид битрейта : Постоянный
Битрейт : 256 Кбит/сек
Канал(ы) : 2 канала(ов)
Частота : 48,0 КГц
Размер потока : 129 МиБ (14%)
Выравнивание : Соединение по промежуткам
Продолжительность промежутка : 40 мс. (1,00 видеокадр)
Время предзагрузки промежутка : 504 ms

Скриншоты



Шагом фарш!

Продолжительность: 01:11:02
Размер: 897 Mb
Описание:Уже практически наступил праздник самых умных и сильных, успешных и целеустремлённых, наших любимых и неповторимых… женщин! А пока, давайте поздравим мужчин))) И сделают это чемпионы по юмористическим поздравлениям - команда КВН «Уральские пельмени» в своём новом шоу о вечном «Шагом фарш»!
Качество: SATRip
Формат: AVI
Видео кодек: DivX
Аудио кодек: MPEG Audio
Видео: 640x480 25 fps ~1501 kbps avg 0.20 bit/pixel
Аудио: 48000 Hz ~256.00 kbps avg

Media Info

Общее
Формат : AVI
Формат/Информация : Audio Video Interleave
Размер файла : 897 МиБ
Продолжительность : 1 ч. 11 м.
Общий поток : 1766 Кбит/сек
Программа кодирования : VirtualDubModRus 1.5.10.1 (build 2439/release)
Библиотека кодирования : VirtualDubMod build 2439/release
Видео
Идентификатор : 0
Формат : MPEG-4 Visual
Параметры BVOP формата : Да
Параметры QPel формата : Нет
Параметры GMC формата : Без точки перехода
Параметры матрицы формата : Default (H.263)
Режим смешивания : Сжатый битовый поток
Идентификатор кодека : DX50
Идентификатор кодека/Подсказка : DivX 5
Продолжительность : 1 ч. 11 м.
Битрейт : 1501 Кбит/сек
Ширина : 640 пикс.
Высота : 480 пикс.
Соотношение кадра : 4:3
Частота кадров : 25,000 кадр/сек
ColorSpace : YUV
ChromaSubsampling : 4:2:0
BitDepth/String : 8 бит
Тип развёртки : Прогрессивная
Бит/(Пиксели*Кадры) : 0.195
Размер потока : 762 МиБ (85%)
Библиотека кодирования : DivX 6.8.5 (UTC 2009-08-20)
Аудио
Идентификатор : 1
Формат : MPEG Audio
Версия формата : Version 1
Профайл формата : Layer 2
Идентификатор кодека : 50
Продолжительность : 1 ч. 11 м.
Вид битрейта : Постоянный
Битрейт : 256 Кбит/сек
Канал(ы) : 2 канала(ов)
Частота : 48,0 КГц
Размер потока : 130 МиБ (14%)
Выравнивание : Соединение по промежуткам
Продолжительность промежутка : 40 мс. (1,00 видеокадр)
Время предзагрузки промежутка : 504 ms

Скриншоты



В гостях у скалки

Продолжительность: 01:10:32
Размер: 1,07 Gb
Описание:8 Марта - потрясающий праздник! Мужчины потрясают женщин подарками и вытрясают свои кошельки! А некоторые по-прежнему продолжают шутить… про женщин.
Мария Берсенева, группа «Блестящие», Виктория Боня, группа «Тутси» и другие девушки в праздничном шоу Уральских пельменей «В гостях у скалки».
Качество: SATRip
Формат: AVI
Видео кодек: XviD
Аудио кодек: MPEG Audio
Видео: 704x528 25 fps ~2073 kbps avg 0.22 bit/pixel
Аудио: 48000 Hz ~96.00 kbps avg

Media Info

Общее
Формат : AVI
Формат/Информация : Audio Video Interleave
Размер файла : 1,07 ГиБ
Продолжительность : 1 ч. 10 м.
Общий поток : 2179 Кбит/сек
Программа кодирования : VirtualDubMod 1.5.10.2 (build 2540/release)
Библиотека кодирования : VirtualDubMod build 2540/release
Видео
Идентификатор : 0
Формат : MPEG-4 Visual
Профайл формата : Advanced [email protected]
Параметры BVOP формата : Да
Параметры QPel формата : Нет
Параметры GMC формата : Без точки перехода
Параметры матрицы формата : Default (MPEG)
Режим смешивания : Сжатый битовый поток
Идентификатор кодека : XVID
Идентификатор кодека/Подсказка : XviD
Продолжительность : 1 ч. 10 м.
Битрейт : 2073 Кбит/сек
Ширина : 704 пикс.
Высота : 528 пикс.
Соотношение кадра : 4:3
Частота кадров : 25,000 кадр/сек
ColorSpace : YUV
ChromaSubsampling : 4:2:0
BitDepth/String : 8 бит
Тип развёртки : Прогрессивная
Бит/(Пиксели*Кадры) : 0.223
Размер потока : 1,02 ГиБ (95%)
Библиотека кодирования : XviD 1.2.1 (UTC 2008-12-04)
Аудио
Идентификатор : 1
Формат : MPEG Audio
Версия формата : Version 1
Профайл формата : Layer 3
Идентификатор кодека : 55
Идентификатор кодека/Подсказка : MP3
Продолжительность : 1 ч. 10 м.
Вид битрейта : Постоянный
Битрейт : 96,0 Кбит/сек
Канал(ы) : 1 канал
Частота : 48,0 КГц
Размер потока : 48,4 МиБ (4%)
Выравнивание : Соединение по промежуткам
Продолжительность промежутка : 40 мс. (1,00 видеокадр)
Время предзагрузки промежутка : 504 ms

Скриншоты



Весь апрель никому

Продолжительность: 01:09:46
Размер: 818 Mb
Описание:Апрель замечательный месяц, где происходит много всего интересного
и смешного, начиная с первого дня месяца.
Качество: SATRip
Формат: AVI
Видео кодек: DivX
Аудио кодек: MPEG Audio
Видео: 640x480 25 fps ~1501 kbps avg 0.20 bit/pixel
Аудио: 48000 Hz ~128.00 kbps avg

Media Info

Общее
Формат : AVI
Формат/Информация : Audio Video Interleave
Размер файла : 818 МиБ
Продолжительность : 1 ч. 9 м.
Общий поток : 1638 Кбит/сек
Библиотека кодирования : VirtualDub build 32706/release
Видео
Идентификатор : 0
Формат : MPEG-4 Visual
Параметры BVOP формата : Да
Параметры QPel формата : Нет
Параметры GMC формата : Без точки перехода
Параметры матрицы формата : Default (H.263)
Режим смешивания : Сжатый битовый поток
Идентификатор кодека : DX50
Идентификатор кодека/Подсказка : DivX 5
Продолжительность : 1 ч. 9 м.
Битрейт : 1501 Кбит/сек
Ширина : 640 пикс.
Высота : 480 пикс.
Соотношение кадра : 4:3
Частота кадров : 25,000 кадр/сек
ColorSpace : YUV
ChromaSubsampling : 4:2:0
BitDepth/String : 8 бит
Тип развёртки : Прогрессивная
Бит/(Пиксели*Кадры) : 0.195
Размер потока : 749 МиБ (92%)
Библиотека кодирования : DivX 6.8.5 (UTC 2009-08-20)
Аудио
Идентификатор : 1
Формат : MPEG Audio
Версия формата : Version 1
Профайл формата : Layer 3
Режим : Joint stereo
Format_Settings_ModeExtension : MS Stereo
Идентификатор кодека : 55
Идентификатор кодека/Подсказка : MP3
Продолжительность : 1 ч. 9 м.
Вид битрейта : Постоянный
Битрейт : 128 Кбит/сек
Канал(ы) : 2 канала(ов)
Частота : 48,0 КГц
Размер потока : 63,9 МиБ (8%)
Выравнивание : Разделение по промежуткам
Продолжительность промежутка : 40 мс. (1,00 видеокадр)
Время предзагрузки промежутка : 500 ms

Скриншоты



По уши в ЕГЭ

Продолжительность: 01:10:24
Размер: 1,07 Gb
Описание:Шоу «Уральские пельмени» приглашает всех посмеяться над собой,
окунуться в мир студенчества на записи новой программы «По уши в ЕГЭ!»
Качество: SATRip
Формат: AVI
Видео кодек: XviD
Аудио кодек: MPEG Audio
Видео: 704x528 25 fps ~2077 kbps avg 0.22 bit/pixel
Аудио: 48000 Hz ~96.00 kbps avg

Media Info

Общее
Формат : AVI
Формат/Информация : Audio Video Interleave
Размер файла : 1,07 ГиБ
Продолжительность : 1 ч. 10 м.
Общий поток : 2183 Кбит/сек
Программа кодирования : VirtualDubMod 1.5.10.2 (build 2540/release)
Библиотека кодирования : VirtualDubMod build 2540/release
Видео
Идентификатор : 0
Формат : MPEG-4 Visual
Профайл формата : Advanced [email protected]
Параметры BVOP формата : Да
Параметры QPel формата : Нет
Параметры GMC формата : Без точки перехода
Параметры матрицы формата : Default (H.263)
Режим смешивания : Сжатый битовый поток
Идентификатор кодека : XVID
Идентификатор кодека/Подсказка : XviD
Продолжительность : 1 ч. 10 м.
Битрейт : 2077 Кбит/сек
Ширина : 704 пикс.
Высота : 528 пикс.
Соотношение кадра : 4:3
Частота кадров : 25,000 кадр/сек
ColorSpace : YUV
ChromaSubsampling : 4:2:0
BitDepth/String : 8 бит
Тип развёртки : Прогрессивная
Бит/(Пиксели*Кадры) : 0.223
Размер потока : 1,02 ГиБ (95%)
Библиотека кодирования : XviD 1.2.1 (UTC 2008-12-04)
Аудио
Идентификатор : 1
Формат : MPEG Audio
Версия формата : Version 1
Профайл формата : Layer 3
Идентификатор кодека : 55
Идентификатор кодека/Подсказка : MP3
Продолжительность : 1 ч. 10 м.
Вид битрейта : Постоянный
Битрейт : 96,0 Кбит/сек
Канал(ы) : 1 канал
Частота : 48,0 КГц
Размер потока : 48,3 МиБ (4%)
Выравнивание : Соединение по промежуткам
Продолжительность промежутка : 40 мс. (1,00 видеокадр)
Время предзагрузки промежутка : 504 ms

Скриншоты



Как я провел ЭТО!

Продолжительность: 01:09:41
Размер: 733 Mb
Описание:Мы рвемся в отпуск и на каникулы. Кто-то в деревню к дедушке, а кто-то на море и пляж. Одни везут с отдыха магнит и полотенце из отеля, другие привозят повод посетить больницу и роддом. Самое главное — уметь красиво рассказать, как все прошло! Еще одна тема, над которой можно посмеяться.
Качество: SATRip
Формат: AVI
Видео кодек: XviD
Аудио кодек: MPEG Audio
Видео: 704x528 25 fps ~1332 kbps avg 0.14 bit/pixel
Аудио: 48000 Hz ~128.00 kbps avg

Media Info

Общее
Формат : AVI
Формат/Информация : Audio Video Interleave
Размер файла : 733 МиБ
Продолжительность : 1 ч. 9 м.
Общий поток : 1470 Кбит/сек
Библиотека кодирования : VirtualDub build 32817/release
Видео
Идентификатор : 0
Формат : MPEG-4 Visual
Профайл формата : [email protected]
Параметры BVOP формата : Нет
Параметры QPel формата : Нет
Параметры GMC формата : Без точки перехода
Параметры матрицы формата : Default (H.263)
Идентификатор кодека : XVID
Идентификатор кодека/Подсказка : XviD
Продолжительность : 1 ч. 9 м.
Битрейт : 1332 Кбит/сек
Ширина : 704 пикс.
Высота : 528 пикс.
Соотношение кадра : 4:3
Частота кадров : 25,000 кадр/сек
ColorSpace : YUV
ChromaSubsampling : 4:2:0
BitDepth/String : 8 бит
Тип развёртки : Прогрессивная
Бит/(Пиксели*Кадры) : 0.143
Размер потока : 664 МиБ (91%)
Библиотека кодирования : XviD 1.2.1 (UTC 2008-12-04)
Аудио
Идентификатор : 1
Формат : MPEG Audio
Версия формата : Version 1
Профайл формата : Layer 3
Режим : Joint stereo
Format_Settings_ModeExtension : MS Stereo
Идентификатор кодека : 55
Идентификатор кодека/Подсказка : MP3
Продолжительность : 1 ч. 9 м.
Вид битрейта : Постоянный
Битрейт : 128 Кбит/сек
Канал(ы) : 2 канала(ов)
Частота : 44,1 КГц
Размер потока : 63,8 МиБ (9%)
Выравнивание : Разделение по промежуткам
Продолжительность промежутка : 40 мс. (1,00 видеокадр)
Время предзагрузки промежутка : 500 ms

Скриншоты



Ура! Стипенсия

Продолжительность: 01:09:36
Размер: 999 Mb
Описание:Студенчество — это самый яркий и интересный этап в жизни
каждого. Некоторые из студентов так увлекаются учебой, что
не успевают поработать, бац — уже пенсия! Но в душе они
молоды, поэтому легко и с юмором относятся к жизни.
Качество: SATRip
Формат: AVI
Видео кодек: XviD
Аудио кодек: MPEG Audio
Видео: 704x528 25 fps ~1901 kbps avg 0.21 bit/pixel
Аудио: 48000 Hz ~96.00 kbps avg

Media Info

Общее
Формат : AVI
Формат/Информация : Audio Video Interleave
Размер файла : 999 МиБ
Продолжительность : 1 ч. 9 м.
Общий поток : 2007 Кбит/сек
Программа кодирования : VirtualDubMod 1.5.10.2 (build 2540/release)
Библиотека кодирования : VirtualDubMod build 2540/release
Видео
Идентификатор : 0
Формат : MPEG-4 Visual
Профайл формата : Advanced [email protected]
Параметры BVOP формата : Да
Параметры QPel формата : Нет
Параметры GMC формата : Без точки перехода
Параметры матрицы формата : Default (H.263)
Режим смешивания : Сжатый битовый поток
Идентификатор кодека : XVID
Идентификатор кодека/Подсказка : XviD
Продолжительность : 1 ч. 9 м.
Битрейт : 1901 Кбит/сек
Ширина : 704 пикс.
Высота : 528 пикс.
Соотношение кадра : 4:3
Частота кадров : 25,000 кадр/сек
ColorSpace : YUV
ChromaSubsampling : 4:2:0
BitDepth/String : 8 бит
Тип развёртки : Прогрессивная
Бит/(Пиксели*Кадры) : 0.205
Размер потока : 947 МиБ (95%)
Библиотека кодирования : XviD 1.2.1 (UTC 2008-12-04)
Аудио
Идентификатор : 1
Формат : MPEG Audio
Версия формата : Version 1
Профайл формата : Layer 3
Идентификатор кодека : 55
Идентификатор кодека/Подсказка : MP3
Продолжительность : 1 ч. 9 м.
Вид битрейта : Постоянный
Битрейт : 96,0 Кбит/сек
Канал(ы) : 1 канал
Частота : 48,0 КГц
Размер потока : 47,8 МиБ (5%)
Выравнивание : Соединение по промежуткам
Продолжительность промежутка : 40 мс. (1,00 видеокадр)
Время предзагрузки промежутка : 504 ms

Скриншоты



Борода измята

Продолжительность: 02:19:40
Размер: 1,62 Gb
Описание:Большая компания весёлых и находчивых пельменей готова показать тебе нечто особенное! В своём новогоднем шоу «Борода измята» они сделают почти невозможное — заглянут в гости почти ко всем россиянам, исполнят детские желания и объединят всех чистым и добрым новогодним настроением и юмором! Встречаем Новый год весело!
Качество: SATRip
Формат: AVI
Видео кодек: XviD
Аудио кодек: MPEG Audio
Видео: 704x528 25 fps ~1453 kbps avg 0.16 bit/pixel
Аудио: 48000 Hz ~128.00 kbps avg

Media Info

Общее
Формат : AVI
Формат/Информация : Audio Video Interleave
Размер файла : 798 МиБ
Продолжительность : 1 ч. 10 м.
Общий поток : 1590 Кбит/сек
Программа кодирования : VirtualDubMod 1.5.10.2 (build 2540/release)
Библиотека кодирования : VirtualDubMod build 2540/release
Видео
Идентификатор : 0
Формат : MPEG-4 Visual
Профайл формата : [email protected]
Параметры BVOP формата : Нет
Параметры QPel формата : Нет
Параметры GMC формата : Без точки перехода
Параметры матрицы формата : Default (H.263)
Идентификатор кодека : XVID
Идентификатор кодека/Подсказка : XviD
Продолжительность : 1 ч. 10 м.
Битрейт : 1453 Кбит/сек
Ширина : 704 пикс.
Высота : 528 пикс.
Соотношение кадра : 4:3
Частота кадров : 25,000 кадр/сек
ColorSpace : YUV
ChromaSubsampling : 4:2:0
BitDepth/String : 8 бит
Тип развёртки : Прогрессивная
Бит/(Пиксели*Кадры) : 0.156
Размер потока : 729 МиБ (91%)
Библиотека кодирования : XviD 1.2.1 (UTC 2008-12-04)
Аудио
Идентификатор : 1
Формат : MPEG Audio
Версия формата : Version 1
Профайл формата : Layer 3
Режим : Joint stereo
Format_Settings_ModeExtension : MS Stereo
Идентификатор кодека : 55
Идентификатор кодека/Подсказка : MP3
Продолжительность : 1 ч. 10 м.
Вид битрейта : Постоянный
Битрейт : 128 Кбит/сек
Канал(ы) : 2 канала(ов)
Частота : 48,0 КГц
Размер потока : 64,3 МиБ (8%)
Выравнивание : Разделение по промежуткам
Продолжительность промежутка : 40 мс. (1,00 видеокадр)
Время предзагрузки промежутка : 500 ms
Библиотека кодирования : LAME3.98.2ЄЄЄЄЄЄЄЄЄЄ

Скриншоты



Из грязи в стразы

Продолжительность: 01:09:02
Размер: 727 Mb
Описание:«Уральские пельмени» открывают тайны московской жизни и раздают пропуска в мир шоу-бизнеса. Плох тот московский актер, который не мечтает стать актрисой! Спеши увидеть самый гламурный концерт года и не забудь надеть cолнцезащитные очки, шоу будет действительно ярким!
Качество: SATRip
Формат: AVI
Видео кодек: XviD
Аудио кодек: MPEG Audio
Видео: 704x528 25 fps ~1335 kbps avg 0.14 bit/pixel
Аудио: 48100 Hz ~128.00 kbps avg

Media Info

Общее
Формат : AVI
Формат/Информация : Audio Video Interleave
Размер файла : 727 МиБ
Продолжительность : 1 ч. 9 м.
Общий поток : 1473 Кбит/сек
Программа кодирования : VirtualDubMod 1.5.10.2 (build 2540/release)
Библиотека кодирования : VirtualDubMod build 2540/release
Видео
Идентификатор : 0
Формат : MPEG-4 Visual
Профайл формата : [email protected]
Параметры BVOP формата : Нет
Параметры QPel формата : Нет
Параметры GMC формата : Без точки перехода
Параметры матрицы формата : Default (H.263)
Идентификатор кодека : XVID
Идентификатор кодека/Подсказка : XviD
Продолжительность : 1 ч. 9 м.
Битрейт : 1335 Кбит/сек
Ширина : 704 пикс.
Высота : 528 пикс.
Соотношение кадра : 4:3
Частота кадров : 25,000 кадр/сек
ColorSpace : YUV
ChromaSubsampling : 4:2:0
BitDepth/String : 8 бит
Тип развёртки : Прогрессивная
Бит/(Пиксели*Кадры) : 0.144
Размер потока : 659 МиБ (91%)
Библиотека кодирования : XviD 1.2.1 (UTC 2008-12-04)
Аудио
Идентификатор : 1
Формат : MPEG Audio
Версия формата : Version 1
Профайл формата : Layer 3
Режим : Joint stereo
Format_Settings_ModeExtension : MS Stereo
Идентификатор кодека : 55
Идентификатор кодека/Подсказка : MP3
Продолжительность : 1 ч. 9 м.
Вид битрейта : Постоянный
Битрейт : 128 Кбит/сек
Канал(ы) : 2 канала(ов)
Частота : 44,1 КГц
Задержка видео : 16 мс.
Размер потока : 63,2 МиБ (9%)
Выравнивание : Разделение по промежуткам
Продолжительность промежутка : 40 мс. (1,00 видеокадр)
Время предзагрузки промежутка : 500 ms
Библиотека кодирования : LAMEЄ

Скриншоты



День смешного Валентина

Продолжительность: 01:10:23
Размер: 806 Mb
Описание:Вот уже больше года «Уральские пельмени» радуют нас всё новые концертами. Очередная новая программа - «День смешного Валентина»!
Качество: SATRip
Формат: AVI
Видео кодек: XviD
Аудио кодек: MPEG Audio
Видео: 640x480 25 fps ~1400 kbps avg 0.18 bit/pixel
Аудио: 48000 Hz ~192.00 kbps avg

Media Info

Общее
Формат : AVI
Формат/Информация : Audio Video Interleave
Размер файла : 806 МиБ
Продолжительность : 1 ч. 10 м.
Общий поток : 1601 Кбит/сек
Библиотека кодирования : VirtualDub build 30009/release
Видео
Идентификатор : 0
Формат : MPEG-4 Visual
Профайл формата : Advanced [email protected]
Параметры BVOP формата : Да
Параметры QPel формата : Нет
Параметры GMC формата : Без точки перехода
Параметры матрицы формата : Default (MPEG)
Режим смешивания : Сжатый битовый поток
Идентификатор кодека : XVID
Идентификатор кодека/Подсказка : XviD
Продолжительность : 1 ч. 10 м.
Битрейт : 1400 Кбит/сек
Ширина : 640 пикс.
Высота : 480 пикс.
Соотношение кадра : 4:3
Частота кадров : 25,000 кадр/сек
ColorSpace : YUV
ChromaSubsampling : 4:2:0
BitDepth/String : 8 бит
Тип развёртки : Прогрессивная
Бит/(Пиксели*Кадры) : 0.182
Размер потока : 705 МиБ (87%)
Библиотека кодирования : XviD 1.2.1 (UTC 2008-12-04)
Аудио
Идентификатор : 1
Формат : MPEG Audio
Версия формата : Version 1
Профайл формата : Layer 3
Режим : Joint stereo
Идентификатор кодека : 55
Идентификатор кодека/Подсказка : MP3
Продолжительность : 1 ч. 10 м.
Вид битрейта : Постоянный
Битрейт : 192 Кбит/сек
Канал(ы) : 2 канала(ов)
Частота : 48,0 КГц
Размер потока : 96,7 МиБ (12%)
Выравнивание : Разделение по промежуткам
Продолжительность промежутка : 40 мс. (1,00 видеокадр)
Время предзагрузки промежутка : 500 ms

Скриншоты



На старт! Внимание! МАРТ!

Продолжительность: 01:09:57
Размер: 1,00 Gb
Описание:Март — это месяц, где есть не только Международный женский День — 8 марта, но и много других незаслуженно забытых праздников, по которым и пройдется беспощадная машина юмора Уральских пельменей. Веселое настроение, заряд бодрости, колкая правда и немного ностальгии — все это на весеннем шоу «Уральских пельменей» — На старт! Внимание! МАРТ!
Качество: SATRip
Формат: AVI
Видео кодек: XviD
Аудио кодек: MPEG Audio
Видео: 720x544 25 fps ~1941 kbps avg 0.20 bit/pixel
Аудио: 48000 Hz ~96.00 kbps avg

Media Info

Общее
Формат : AVI
Формат/Информация : Audio Video Interleave
Размер файла : 1,00 ГиБ
Продолжительность : 1 ч. 9 м.
Общий поток : 2047 Кбит/сек
Программа кодирования : VirtualDubMod 1.5.10.2 (build 2540/release)
Библиотека кодирования : VirtualDubMod build 2540/release
Видео
Идентификатор : 0
Формат : MPEG-4 Visual
Профайл формата : Advanced [email protected]
Параметры BVOP формата : Да
Параметры QPel формата : Нет
Параметры GMC формата : Без точки перехода
Параметры матрицы формата : Default (MPEG)
Режим смешивания : Сжатый битовый поток
Идентификатор кодека : XVID
Идентификатор кодека/Подсказка : XviD
Продолжительность : 1 ч. 9 м.
Битрейт : 1941 Кбит/сек
Ширина : 720 пикс.
Высота : 544 пикс.
Соотношение кадра : 4:3
Частота кадров : 25,000 кадр/сек
ColorSpace : YUV
ChromaSubsampling : 4:2:0
BitDepth/String : 8 бит
Тип развёртки : Прогрессивная
Бит/(Пиксели*Кадры) : 0.198
Размер потока : 972 МиБ (95%)
Библиотека кодирования : XviD 1.2.1 (UTC 2008-12-04)
Аудио
Идентификатор : 1
Формат : MPEG Audio
Версия формата : Version 1
Профайл формата : Layer 3
Идентификатор кодека : 55
Идентификатор кодека/Подсказка : MP3
Продолжительность : 1 ч. 9 м.
Вид битрейта : Постоянный
Битрейт : 96,0 Кбит/сек
Канал(ы) : 1 канал
Частота : 48,0 КГц
Размер потока : 48,0 МиБ (5%)
Выравнивание : Разделение по промежуткам
Продолжительность промежутка : 40 мс. (1,00 видеокадр)
Время предзагрузки промежутка : 500 ms

Скриншоты



Союзы-Аполлоны

Продолжительность: 01:10:20
Размер: 949 Мb
Описание:К 50-летнему юбилею первого полета в космос «Уральские Пельмени» представляют «Космический Концерт для Вселенной с Тюбиком» — «Союзы-Аполлоны!». Они никогда не были в космосе, потому что космос находится в них! Они откроют тебе свою Вселенную! Многие мечтают о таком путешествии, но только у тебя есть шанс реально попасть туда.
Качество: SATRip
Формат: AVI
Видео кодек: XviD
Аудио кодек: MPEG Audio
Видео:688x512 25 fps ~1780 kbps avg 0.20 bit/pixel
Аудио: 48000 Hz ~96.00 kbps avg

Media Info

Общее
Формат : AVI
Формат/Информация : Audio Video Interleave
Размер файла : 949 МиБ
Продолжительность : 1 ч. 10 м.
Общий поток : 1886 Кбит/сек
Программа кодирования : VirtualDubMod 1.5.10.2 (build 2540/release)
Библиотека кодирования : VirtualDubMod build 2540/release
Видео
Идентификатор : 0
Формат : MPEG-4 Visual
Профайл формата : Advanced [email protected]
Параметры BVOP формата : Да
Параметры QPel формата : Нет
Параметры GMC формата : Без точки перехода
Параметры матрицы формата : Default (H.263)
Режим смешивания : Сжатый битовый поток
Идентификатор кодека : XVID
Идентификатор кодека/Подсказка : XviD
Продолжительность : 1 ч. 10 м.
Битрейт : 1780 Кбит/сек
Ширина : 688 пикс.
Высота : 512 пикс.
Соотношение кадра : 4:3
Частота кадров : 25,000 кадр/сек
ColorSpace : YUV
ChromaSubsampling : 4:2:0
BitDepth/String : 8 бит
Тип развёртки : Прогрессивная
Бит/(Пиксели*Кадры) : 0.202
Размер потока : 896 МиБ (94%)
Библиотека кодирования : XviD 1.2.1 (UTC 2008-12-04)
Аудио
Идентификатор : 1
Формат : MPEG Audio
Версия формата : Version 1
Профайл формата : Layer 3
Идентификатор кодека : 55
Идентификатор кодека/Подсказка : MP3
Продолжительность : 1 ч. 10 м.
Вид битрейта : Постоянный
Битрейт : 96,0 Кбит/сек
Канал(ы) : 1 канал
Частота : 48,0 КГц
Размер потока : 48,3 МиБ (5%)
Выравнивание : Соединение по промежуткам
Продолжительность промежутка : 40 мс. (1,00 видеокадр)
Время предзагрузки промежутка : 504 ms

Скриншоты



Отцы и эти

Продолжительность: 01:10:09
Размер: 998 Mb
Описание:Смотри новый семейный концерт от «Уральских пельменей» и ты узнаешь ответы на вопросы: Если Дети — это цветы жизни, надо ли ставить их в воду? Чем удобрять генеалогическое древо, чтобы твой род процветал? Папа или папик — что лучше для девушки? Предки, родаки, старики, родичи — как еще назвать родителей, чтобы они уехали на дачу?
Качество: SATRip
Формат: AVI
Видео кодек: XviD
Аудио кодек: MPEG Audio
Видео: 720x528 25 fps ~1882 kbps avg 0.20bit/pixel
Аудио: 48000 Hz ~96.00 kbps avg

Media Info

Общее
Формат : AVI
Формат/Информация : Audio Video Interleave
Размер файла : 998 МиБ
Продолжительность : 1 ч. 10 м.
Общий поток : 1988 Кбит/сек
Программа кодирования : VirtualDubMod 1.5.10.2 (build 2540/release)
Библиотека кодирования : VirtualDubMod build 2540/release
Видео
Идентификатор : 0
Формат : MPEG-4 Visual
Профайл формата : Advanced [email protected]
Параметры BVOP формата : Да
Параметры QPel формата : Нет
Параметры GMC формата : Без точки перехода
Параметры матрицы формата : Default (H.263)
Режим смешивания : Сжатый битовый поток
Идентификатор кодека : XVID
Идентификатор кодека/Подсказка : XviD
Продолжительность : 1 ч. 10 м.
Битрейт : 1882 Кбит/сек
Ширина : 720 пикс.
Высота : 528 пикс.
Соотношение кадра : 4:3
Частота кадров : 25,000 кадр/сек
ColorSpace : YUV
ChromaSubsampling : 4:2:0
BitDepth/String : 8 бит
Тип развёртки : Прогрессивная
Бит/(Пиксели*Кадры) : 0.198
Размер потока : 945 МиБ (95%)
Библиотека кодирования : XviD 1.2.1 (UTC 2008-12-04)
Аудио
Идентификатор : 1
Формат : MPEG Audio
Версия формата : Version 1
Профайл формата : Layer 3
Идентификатор кодека : 55
Идентификатор кодека/Подсказка : MP3
Продолжительность : 1 ч. 10 м.
Вид битрейта : Постоянный
Битрейт : 96,0 Кбит/сек
Канал(ы) : 1 канал
Частота : 48,0 КГц
Размер потока : 48,2 МиБ (5%)
Выравнивание : Соединение по промежуткам
Продолжительность промежутка : 40 мс. (1,00 видеокадр)
Время предзагрузки промежутка : 504 ms

Скриншоты



От томата до заката

Продолжительность: 01:09:59
Размер: 800 Mb
Описание: «Уральские пельмени» уже приготовили для нас лучшую коллекцию рецептов домашних заготовок в программе «От томата до заката». Что лучше: мочить или солить? Какие овощи уродились в этом году на грядке Нетиевского?
Что делать, если не уродилась картошка? На эти и многие другие вопросы самые весёлые садоводы Урала.
Качество: SATRip
Формат: AVI
Видео кодек: XviD
Аудио кодек: MPEG Audio
Видео: 704x400 25 fps ~1493 kbps avg 0.21 bit/pixel
Аудио: 48000 Hz ~96.00 kbps avg

Media Info

Общее
Формат : AVI
Формат/Информация : Audio Video Interleave
Размер файла : 800 МиБ
Продолжительность : 1 ч. 9 м.
Общий поток : 1599 Кбит/сек
Библиотека кодирования : VirtualDub build 32842/release
Видео
Идентификатор : 0
Формат : MPEG-4 Visual
Профайл формата : Advanced [email protected]
Параметры BVOP формата : Да
Параметры QPel формата : Нет
Параметры GMC формата : Без точки перехода
Параметры матрицы формата : Default (MPEG)
Идентификатор кодека : XVID
Идентификатор кодека/Подсказка : XviD
Продолжительность : 1 ч. 9 м.
Битрейт : 1493 Кбит/сек
Ширина : 704 пикс.
Высота : 400 пикс.
Соотношение кадра : 16:9
Частота кадров : 25,000 кадр/сек
ColorSpace : YUV
ChromaSubsampling : 4:2:0
BitDepth/String : 8 бит
Тип развёртки : Прогрессивная
Бит/(Пиксели*Кадры) : 0.212
Размер потока : 747 МиБ (93%)
Библиотека кодирования : XviD 64
Аудио
Идентификатор : 1
Формат : MPEG Audio
Версия формата : Version 1
Профайл формата : Layer 3
Идентификатор кодека : 55
Идентификатор кодека/Подсказка : MP3
Продолжительность : 1 ч. 9 м.
Вид битрейта : Постоянный
Битрейт : 96,0 Кбит/сек
Канал(ы) : 1 канал
Частота : 48,0 КГц
Размер потока : 48,1 МиБ (6%)
Выравнивание : Разделение по промежуткам
Продолжительность промежутка : 40 мс. (1,00 видеокадр)
Время предзагрузки промежутка : 500 ms

Скриншоты



Пинг-понг жив!

Продолжительность: 01:09:53
Размер: 800 Mb
Описание:Они родились в те времена, когда Пеле был не кофе! Семеро одного – не спорт! Это не про них! Они начинали с простых видов спорта: «Толкание вЯдрА», «Литробол» и «Посмотри, какая FIFA!». Теперь они выросли и их девиз - «В здоровом теле - здоровый УХ!».
Беспощадная машина юмора «Шоу Уральские Пельмени» в спортивном концерте «Пинг-понг жив!».
Качество: SATRip
Формат: AVI
Видео кодек: XviD
Аудио кодек: MPEG Audio
Видео: 704x400 25 fps ~1494 kbps avg 0.21 bit/pixel
Аудио: 48000 Hz ~96.00 kbps avg

Media Info

Общее
Формат : AVI
Формат/Информация : Audio Video Interleave
Размер файла : 800 МиБ
Продолжительность : 1 ч. 9 м.
Общий поток : 1599 Кбит/сек
Библиотека кодирования : VirtualDub build 32842/release
Видео
Идентификатор : 0
Формат : MPEG-4 Visual
Профайл формата : Advanced [email protected]
Параметры BVOP формата : Да
Параметры QPel формата : Нет
Параметры GMC формата : Без точки перехода
Параметры матрицы формата : Default (MPEG)
Идентификатор кодека : XVID
Идентификатор кодека/Подсказка : XviD
Продолжительность : 1 ч. 9 м.
Битрейт : 1494 Кбит/сек
Ширина : 704 пикс.
Высота : 400 пикс.
Соотношение кадра : 16:9
Частота кадров : 25,000 кадр/сек
ColorSpace : YUV
ChromaSubsampling : 4:2:0
BitDepth/String : 8 бит
Тип развёртки : Прогрессивная
Бит/(Пиксели*Кадры) : 0.212
Размер потока : 747 МиБ (93%)
Библиотека кодирования : XviD 64
Аудио
Идентификатор : 1
Формат : MPEG Audio
Версия формата : Version 1
Профайл формата : Layer 3
Идентификатор кодека : 55
Идентификатор кодека/Подсказка : MP3
Продолжительность : 1 ч. 9 м.
Вид битрейта : Постоянный
Битрейт : 96,0 Кбит/сек
Канал(ы) : 1 канал
Частота : 48,0 КГц
Размер потока : 48,0 МиБ (6%)
Выравнивание : Разделение по промежуткам
Продолжительность промежутка : 40 мс. (1,00 видеокадр)
Время предзагрузки промежутка : 500 ms

Скриншоты



Нано-концерт, на!

Продолжительность: 01:12:09
Размер: 900 Mb
Описание:Беспощадная машина белого юмора "Шоу Уральские пельмени" представляют новую программу с технологическим уклоном «Нано концерт, на!». Микроюмор, мегаимпровизации, сценки в сотни раз мельче миниатюры, броуновские танцы и прочие неожиданные веселости.
Качество: SATRip
Формат: AVI
Видео кодек: XviD
Аудио кодек: MPEG Audio
Видео: 720x416 25 fps ~1639 kbps avg 0.22 bit/pixel
Аудио: 48000 Hz ~96.00 kbps avg

Media Info

Общее
Формат : AVI
Формат/Информация : Audio Video Interleave
Размер файла : 900 МиБ
Продолжительность : 1 ч. 12 м.
Общий поток : 1745 Кбит/сек
Библиотека кодирования : VirtualDub build 30080/release
Видео
Идентификатор : 0
Формат : MPEG-4 Visual
Профайл формата : Advanced [email protected]
Параметры BVOP формата : Да
Параметры QPel формата : Нет
Параметры GMC формата : Без точки перехода
Параметры матрицы формата : Default (MPEG)
Идентификатор кодека : XVID
Идентификатор кодека/Подсказка : XviD
Продолжительность : 1 ч. 12 м.
Битрейт : 1639 Кбит/сек
Ширина : 720 пикс.
Высота : 416 пикс.
Соотношение кадра : 16:9
Частота кадров : 25,000 кадр/сек
ColorSpace : YUV
ChromaSubsampling : 4:2:0
BitDepth/String : 8 бит
Тип развёртки : Прогрессивная
Бит/(Пиксели*Кадры) : 0.219
Размер потока : 846 МиБ (94%)
Библиотека кодирования : XviD 1.2.1 (UTC 2008-12-04)
Аудио
Идентификатор : 1
Формат : MPEG Audio
Версия формата : Version 1
Профайл формата : Layer 3
Идентификатор кодека : 55
Идентификатор кодека/Подсказка : MP3
Продолжительность : 1 ч. 12 м.
Вид битрейта : Постоянный
Битрейт : 96,0 Кбит/сек
Канал(ы) : 1 канал
Частота : 48,0 КГц
Размер потока : 49,5 МиБ (6%)
Выравнивание : Разделение по промежуткам
Продолжительность промежутка : 40 мс. (1,00 видеокадр)
Время предзагрузки промежутка : 500 ms

Скриншоты



Снегодяи

Продолжительность: 02:18:02
Размер: 1,60 Gb
Описание:Кто они? Они идут на запах оливье и мандаринов! У них руки по локоть в подарках! У них борода из натуральной бороды и они не горбятся! Они не просто Деды Морозы - они называют себя Снегодяи! Впустите их, и Они подарят вам смех!
Качество: SATRip
Формат: AVI
Видео кодек: XviD
Аудио кодек: MPEG Audio
Видео: 720x400 25 fps ~1556 kbps avg 0.22 bit/pixel
Аудио: 48000 Hz ~192.00 kbps avg

Media Info

Общее
Формат : AVI
Формат/Информация : Audio Video Interleave
Размер файла : 1,60 ГиБ
Продолжительность : 2 ч. 18 м.
Общий поток : 1662 Кбит/сек
Библиотека кодирования : VirtualDub build 32842/release
Видео
Идентификатор : 0
Формат : MPEG-4 Visual
Профайл формата : Advanced [email protected]
Параметры BVOP формата : Да
Параметры QPel формата : Нет
Параметры GMC формата : Без точки перехода
Параметры матрицы формата : Default (MPEG)
Идентификатор кодека : XVID
Идентификатор кодека/Подсказка : XviD
Продолжительность : 2 ч. 18 м.
Битрейт : 1556 Кбит/сек
Ширина : 720 пикс.
Высота : 400 пикс.
Соотношение кадра : 16:9
Частота кадров : 25,000 кадр/сек
ColorSpace : YUV
ChromaSubsampling : 4:2:0
BitDepth/String : 8 бит
Тип развёртки : Прогрессивная
Бит/(Пиксели*Кадры) : 0.216
Размер потока : 1,50 ГиБ (94%)
Библиотека кодирования : XviD 64
Аудио
Идентификатор : 1
Формат : MPEG Audio
Версия формата : Version 1
Профайл формата : Layer 3
Идентификатор кодека : 55
Идентификатор кодека/Подсказка : MP3
Продолжительность : 2 ч. 18 м.
Вид битрейта : Постоянный
Битрейт : 96,0 Кбит/сек
Канал(ы) : 1 канал
Частота : 48,0 КГц
Размер потока : 94,8 МиБ (6%)
Выравнивание : Разделение по промежуткам
Продолжительность промежутка : 40 мс. (1,00 видеокадр)
Время предзагрузки промежутка : 500 ms

Скриншоты



Год в сапогах

Продолжительность: 01:09:41
Размер: 800 Mb
Описание:Новое шоу от «Уральских пельменей». Все что вы хотели знать о мужчинах, но боялись спросить! Не пропусти веселые вариации на тему «Упал-проржался!»
Качество: SATRip
Формат: AVI
Видео кодек: XviD
Аудио кодек: MPEG Audio
Видео: 704x400 (1.76:1) 25 fps 1499 kbps avg 0.21 bit/pixel
Аудио: 48000 Hz 1 ch 96.00 kbps avg

Media Info

Общее
Формат : AVI
Формат/Информация : Audio Video Interleave
Размер файла : 800 Мбайт
Продолжительность : 1 ч. 9 м.
Общий поток : 1605 Кбит/сек
Библиотека кодирования : VirtualDub build 32842/release
Видео
Идентификатор : 0
Формат : MPEG-4 Visual
Профиль формата : Advanced [email protected]
Параметр BVOP формата : 2
Параметр QPel формата : Нет
Параметр GMC формата : Без точки перехода
Параметр матрицы формата : Default (MPEG)
Идентификатор кодека : XVID
Идентификатор кодека/Подсказка : XviD
Продолжительность : 1 ч. 9 м.
Битрейт : 1499 Кбит/сек
Ширина : 704 пикселя
Высота : 400 пикселей
Соотношение сторон : 16:9
Частота кадров : 25,000 кадров/сек
Цветовое пространство : YUV
Субдискретизация насыщенности : 4:2:0
Битовая глубина : 8 бит
Тип развёртки : Прогрессивная
Метод сжатия : С потерями
Бит/(Пиксели*Кадры) : 0.213
Размер потока : 747 Мбайт (93%)
Библиотека кодирования : XviD 64
Аудио
Идентификатор : 1
Формат : MPEG Audio
Версия формата : Version 1
Профиль формата : Layer 3
Идентификатор кодека : 55
Идентификатор кодека/Подсказка : MP3
Продолжительность : 1 ч. 9 м.
Вид битрейта : Постоянный
Битрейт : 96,0 Кбит/сек
Каналы : 1 канал
Частота : 48,0 КГц
Метод сжатия : С потерями
Размер потока : 47,9 Мбайт (6%)
Выравнивание : Разделение по промежуткам
Продолжительность промежутка : 40 мс. (1,00 видеокадр)
Время предзагрузки промежутка : 500 мс.

Скриншоты



Красота спасет мымр

Продолжительность: 01:09:50
Размер: 764 Mb
Описание:«КРАСОТА СПАСЕТ МЫМР!» - все для женщин и о женщинах . Прямо на сцене - Чудесные превращения в принцесс и обратно!
Качество: SATRip
Формат: AVI
Видео кодек: XviD
Аудио кодек: MPEG Audio
Видео: 704x400 (1.76:1) 25 fps 1391 kbps avg 0.20 bit/pixel
Аудио: 48000 Hz 1 ch 128.00 kbps avg

Media Info

Общее
Формат : AVI
Формат/Информация : Audio Video Interleave
Размер файла : 764 Мбайт
Продолжительность : 1 ч. 9 м.
Общий поток : 1529 Кбит/сек
Программа кодирования : VirtualDubMod 1.5.10.3 | www.virtualdub-fr.org || (build 2550/release)
Библиотека кодирования : VirtualDubMod build 2550/release
Видео
Идентификатор : 0
Формат : MPEG-4 Visual
Профиль формата : Advanced [email protected]
Параметр BVOP формата : 2
Параметр QPel формата : Нет
Параметр GMC формата : Без точки перехода
Параметр матрицы формата : Default (MPEG)
Идентификатор кодека : XVID
Идентификатор кодека/Подсказка : XviD
Продолжительность : 1 ч. 9 м.
Битрейт : 1391 Кбит/сек
Ширина : 704 пикселя
Высота : 400 пикселей
Соотношение сторон : 16:9
Частота кадров : 25,000 кадров/сек
Цветовое пространство : YUV
Субдискретизация насыщенности : 4:2:0
Битовая глубина : 8 бит
Тип развёртки : Прогрессивная
Метод сжатия : С потерями
Бит/(Пиксели*Кадры) : 0.198
Размер потока : 695 Мбайт (91%)
Библиотека кодирования : XviD 64
Аудио
Идентификатор : 1
Формат : MPEG Audio
Версия формата : Version 1
Профиль формата : Layer 3
Режим : Joint stereo
Расширение режима : MS Stereo
Идентификатор кодека : 55
Идентификатор кодека/Подсказка : MP3
Продолжительность : 1 ч. 9 м.
Вид битрейта : Постоянный
Битрейт : 128 Кбит/сек
Каналы : 2 канала
Частота : 48,0 КГц
Метод сжатия : С потерями
Размер потока : 63,9 Мбайт (8%)
Выравнивание : Соединение по промежуткам
Продолжительность промежутка : 40 мс. (1,00 видеокадр)
Время предзагрузки промежутка : 504 мс.
Библиотека кодирования : LAME3.90.3ЄЄЄЄЄЄЄЄЄЄ

Скриншоты



Зе BAD – Худшее!

Продолжительность: 01:12:02
Размер: 825 Mb
Описание: «Шоу Уральские Пельмени» представляют спецпроект - оригинальную экспериментальную программу «Зе BAD – Худшее!» Все, что было на съемках в зале, но не попало в эфиры!
Качество: SATRip
Формат: AVI
Видео кодек: XviD
Аудио кодек: MPEG Audio
Видео: 704x400 (1.76:1) 25 fps 1495 kbps avg 0.21 bit/pixel
Аудио: 48000 Hz 1 ch 96.00 kbps avg

Media Info

Общее
Формат : AVI
Формат/Информация : Audio Video Interleave
Размер файла : 825 Мбайт
Продолжительность : 1 ч. 12 м.
Общий поток : 1601 Кбит/сек
Библиотека кодирования : VirtualDub build 32842/release
Видео
Идентификатор : 0
Формат : MPEG-4 Visual
Профиль формата : Advanced [email protected]
Параметр BVOP формата : 2
Параметр QPel формата : Нет
Параметр GMC формата : Без точки перехода
Параметр матрицы формата : Default (MPEG)
Идентификатор кодека : XVID
Идентификатор кодека/Подсказка : XviD
Продолжительность : 1 ч. 12 м.
Битрейт : 1495 Кбит/сек
Ширина : 704 пикселя
Высота : 400 пикселей
Соотношение сторон : 16:9
Частота кадров : 25,000 кадров/сек
Цветовое пространство : YUV
Субдискретизация насыщенности : 4:2:0
Битовая глубина : 8 бит
Тип развёртки : Прогрессивная
Метод сжатия : С потерями
Бит/(Пиксели*Кадры) : 0.212
Размер потока : 771 Мбайт (93%)
Библиотека кодирования : XviD 64
Аудио
Идентификатор : 1
Формат : MPEG Audio
Версия формата : Version 1
Профиль формата : Layer 3
Идентификатор кодека : 55
Идентификатор кодека/Подсказка : MP3
Продолжительность : 1 ч. 12 м.
Вид битрейта : Постоянный
Битрейт : 96,0 Кбит/сек
Каналы : 1 канал
Частота : 48,0 КГц
Метод сжатия : С потерями
Размер потока : 49,5 Мбайт (6%)
Выравнивание : Разделение по промежуткам
Продолжительность промежутка : 40 мс. (1,00 видеокадр)
Время предзагрузки промежутка : 500 мс.

Скриншоты



Не вешать хвост, ветеринары!

Продолжительность: 01:10:16
Размер: 825 Mb
Описание: Хорошо ли потепление климата для Урала, озоновые дуры, грин пииис, братья наши - меньшие или большие?
Все новости животного и растительного мира:
- В Сочи киты выбрасываются на берег, чтобы помочь со строительством олимпийских объектов
- Оказывается, золотая сборная России по синхронному плаванию тренируется под наблюдением стаи пираний
- Охотники со всей России ищут того медведя, который позировал для эмблемы партии
Все вопросы нашего мира сквозь призму официальных дилеров белого юмора!
Качество: SATRip
Формат: AVI
Видео кодек: XviD
Аудио кодек: MPEG Audio
Видео: 720x400 (1.80:1) 25 fps 1536 kbps avg 0.21 bit/pixel
Аудио: 48000 Hz 1 ch 96.00 kbps avg

Media Info

Общее
Формат : AVI
Формат/Информация : Audio Video Interleave
Размер файла : 825 Мбайт
Продолжительность : 1 ч. 10 м.
Общий поток : 1641 Кбит/сек
Библиотека кодирования : VirtualDub build 32842/release
Видео
Идентификатор : 0
Формат : MPEG-4 Visual
Профиль формата : Advanced [email protected]
Параметр BVOP формата : 2
Параметр QPel формата : Нет
Параметр GMC формата : Без точки перехода
Параметр матрицы формата : Default (MPEG)
Идентификатор кодека : XVID
Идентификатор кодека/Подсказка : XviD
Продолжительность : 1 ч. 10 м.
Битрейт : 1536 Кбит/сек
Ширина : 720 пикселей
Высота : 400 пикселей
Соотношение сторон : 16:9
Частота кадров : 25,000 кадров/сек
Цветовое пространство : YUV
Субдискретизация насыщенности : 4:2:0
Битовая глубина : 8 бит
Тип развёртки : Прогрессивная
Метод сжатия : С потерями
Бит/(Пиксели*Кадры) : 0.213
Размер потока : 772 Мбайт (94%)
Библиотека кодирования : XviD 64
Аудио
Идентификатор : 1
Формат : MPEG Audio
Версия формата : Version 1
Профиль формата : Layer 3
Идентификатор кодека : 55
Идентификатор кодека/Подсказка : MP3
Продолжительность : 1 ч. 10 м.
Вид битрейта : Постоянный
Битрейт : 96,0 Кбит/сек
Каналы : 1 канал
Частота : 48,0 КГц
Метод сжатия : С потерями
Размер потока : 48,3 Мбайт (6%)
Выравнивание : Разделение по промежуткам
Продолжительность промежутка : 40 мс. (1,00 видеокадр)
Время предзагрузки промежутка : 500 мс.

Скриншоты



Очень страшное смешно

Продолжительность: 01:10:15
Размер: 1,06 Gb
Описание: Новое шоу "Уральских пельменей", названное "Очень страшное смешно". Пародии на современные фильмы, море искрометного юмора и позитивного настроения подарит Вам новый концерт.
Качество: SATRip
Формат: AVI
Видео кодек: DivX
Аудио кодек: MPEG Audio
Видео: 704x400 (1.76:1) 25 fps ~2002 kbps avg 0.28 bit/pixel
Аудио: 48000 Hz 2 ch 128.00 kbps avg

Media Info

Общее
Формат : AVI
Формат/Информация : Audio Video Interleave
Размер файла : 1,06 Гбайт
Продолжительность : 1 ч. 10 м.
Общий поток : 2140 Кбит/сек
Библиотека кодирования : VirtualDub build 32839/release
Видео
Идентификатор : 0
Формат : MPEG-4 Visual
Параметр BVOP формата : 1
Параметр QPel формата : Нет
Параметр GMC формата : Без точки перехода
Параметр матрицы формата : Default (H.263)
Режим смешивания : Сжатый битовый поток
Идентификатор кодека : DX50
Идентификатор кодека/Подсказка : DivX 5
Продолжительность : 1 ч. 10 м.
Битрейт : 2002 Кбит/сек
Ширина : 704 пикселя
Высота : 400 пикселей
Соотношение сторон : 16:9
Частота кадров : 25,000 кадров/сек
Цветовое пространство : YUV
Субдискретизация насыщенности : 4:2:0
Битовая глубина : 8 бит
Тип развёртки : Прогрессивная
Метод сжатия : С потерями
Бит/(Пиксели*Кадры) : 0.284
Размер потока : 1011 Мбайт (94%)
Библиотека кодирования : DivX 6.8.5 (UTC 2009-08-20)
Аудио
Идентификатор : 1
Формат : MPEG Audio
Версия формата : Version 1
Профиль формата : Layer 3
Режим : Joint stereo
Расширение режима : MS Stereo
Идентификатор кодека : 55
Идентификатор кодека/Подсказка : MP3
Продолжительность : 1 ч. 10 м.
Вид битрейта : Постоянный
Битрейт : 128 Кбит/сек
Каналы : 2 канала
Частота : 48,0 КГц
Метод сжатия : С потерями
Размер потока : 64,6 Мбайт (6%)
Выравнивание : Разделение по промежуткам
Продолжительность промежутка : 40 мс. (1,00 видеокадр)
Время предзагрузки промежутка : 500 мс.

Скриншоты



Вялые паруса

Продолжительность: 00:41:27
Размер: 994.51 Mb
Описание: Уральские Пельмени представляют своё очередное творение «ВЯЛЫЕ ПАРУСА!». Как всегда все неожиданно, смешно, удивительно и интерактивно! Курортные романы, дачные комедии, веселые походы – все о попутном ветре! Много смешных ситуаций, в которых каждый узнает себя!
Часть 1. Отдых за границей
Часть 2: Отдых в России
Качество: SATRip
Формат: AVI
Видео кодек: XviD
Аудио кодек: MPEG Audio
Видео: 704x400 25 fps 1361 kbps 0.19 bit/pixel
Аудио: 48000 Hz stereo 128 kbps avg

Media Info

Общее
Формат : AVI
Формат/Информация : Audio Video Interleave
Размер файла : 444 Мбайт
Продолжительность : 41 м.
Общий поток : 1499 Кбит/сек
Программа кодирования : VirtualDubMod 1.5.10.3 | www.virtualdub-fr.org || (build 2550/release)
Библиотека кодирования : VirtualDubMod build 2550/release
Видео
Идентификатор : 0
Формат : MPEG-4 Visual
Профиль формата : Advanced [email protected]
Параметр BVOP формата : 2
Параметр QPel формата : Нет
Параметр GMC формата : Без точки перехода
Параметр матрицы формата : Default (MPEG)
Идентификатор кодека : XVID
Идентификатор кодека/Подсказка : XviD
Продолжительность : 41 м.
Битрейт : 1361 Кбит/сек
Ширина : 704 пикселя
Высота : 400 пикселей
Соотношение сторон : 16:9
Частота кадров : 25,000 кадров/сек
Цветовое пространство : YUV
Субдискретизация насыщенности : 4:2:0
Битовая глубина : 8 бит
Тип развёртки : Прогрессивная
Метод сжатия : С потерями
Бит/(Пиксели*Кадры) : 0.193
Размер потока : 404 Мбайт (91%)
Библиотека кодирования : XviD 64
Аудио
Идентификатор : 1
Формат : MPEG Audio
Версия формата : Version 1
Профиль формата : Layer 3
Режим : Joint stereo
Идентификатор кодека : 55
Идентификатор кодека/Подсказка : MP3
Продолжительность : 41 м.
Вид битрейта : Постоянный
Битрейт : 128 Кбит/сек
Каналы : 2 канала
Частота : 48,0 КГц
Метод сжатия : С потерями
Размер потока : 38,0 Мбайт (9%)
Выравнивание : Соединение по промежуткам
Продолжительность промежутка : 40 мс. (1,00 видеокадр)
Время предзагрузки промежутка : 504 мс.
Библиотека кодирования : LAME3.90.3

Скриншоты



Тень знаний

Продолжительность: 00:47:03
Размер: 571 Mb
Описание: Весёлые парни в мандариновых рубашках не дадут соскучиться и подарят отличное настроение всей семье. У юмора «Уральских пельменей» нет возрастных ограничений, они избегают «шуток ниже пояса» и на их концертах пятилетние дети смеются рядом с 50-ти летними взрослыми. Новое комедийное шоу включает в себя как самостоятельные сценические истории, так и импровизации с залом, а также смешные сценки со звёздами, которые пришли посмотреть на любимую команду и неожиданно для себя оказались на сцене. Не пропусти новое шоу с ранцем, от всем известных многоклассников и повелителей парт из «Уральских Пельменей» . Тебя ждут зачётные истории про: Серпом по доске, Мел всему голова, Жи – Ши – пиши через Ы, Скупой учит дважды, Тяжело на сессии - легко в строю, Не сдал зачет, сдавай бутылки!
Часть 1.
Часть 2.
Качество: SATRip
Формат: AVI
Видео кодек: XviD
Аудио кодек: MPEG Audio
Видео: 704 x 400 25 fps ~1559 kbps 0.22 bit/pixel
Аудио: 48000 Hz stereo 128 kbps avg

Media Info

Формат : AVI
Формат/Информация : Audio Video Interleave
Размер файла : 571 Мбайт
Продолжительность : 47 м.
Общий поток : 1696 Кбит/сек
Библиотека кодирования : VirtualDub build 32842/release
Видео
Идентификатор : 0
Формат : MPEG-4 Visual
Профиль формата : Advanced [email protected]
Параметр BVOP формата : 2
Параметр QPel формата : Нет
Параметр GMC формата : Без точки перехода
Параметр матрицы формата : Default (MPEG)
Идентификатор кодека : XVID
Идентификатор кодека/Подсказка : XviD
Продолжительность : 47 м.
Битрейт : 1559 Кбит/сек
Ширина : 704 пикселя
Высота : 400 пикселей
Соотношение сторон : 16:9
Частота кадров : 25,000 кадров/сек
Цветовое пространство : YUV
Субдискретизация насыщенности : 4:2:0
Битовая глубина : 8 бит
Тип развёртки : Прогрессивная
Метод сжатия : С потерями
Бит/(Пиксели*Кадры) : 0.221
Размер потока : 525 Мбайт (92%)
Библиотека кодирования : XviD 64
Аудио
Идентификатор : 1
Формат : MPEG Audio
Версия формата : Version 1
Профиль формата : Layer 3
Режим : Joint stereo
Расширение режима : MS Stereo
Идентификатор кодека : 55
Идентификатор кодека/Подсказка : MP3
Продолжительность : 47 м.
Вид битрейта : Постоянный
Битрейт : 128 Кбит/сек
Каналы : 2 канала
Частота : 48,0 КГц
Метод сжатия : С потерями
Размер потока : 43,1 Мбайт (8%)
Выравнивание : Разделение по промежуткам
Продолжительность промежутка : 40 мс. (1,00 видеокадр)
Время предзагрузки промежутка : 500 мс.

Скриншоты



Назад в булошную

Продолжительность: 00:46:49
Размер: 561 Mb
Описание: Весёлые парни в мандариновых рубашках не дадут соскучиться и подарят отличное настроение всей семье. У юмора «Уральских пельменей» нет возрастных ограничений, они избегают «шуток ниже пояса» и на их концертах пятилетние дети смеются рядом с 50-ти летними взрослыми. Новое комедийное шоу включает в себя как самостоятельные сценические истории, так и импровизации с залом, а также смешные сценки со звёздами, которые пришли посмотреть на любимую команду и неожиданно для себя оказались на сцене.
Не пропусти новое шоу:
Изюм в крошках, гимнастика для булок и полёт в 1980 год за рецептом краюшки чёрного хлеба!
Без теста нет места!
Наши люди на такси в булошную не ездят. Они ездят на «Шоу Уральских Пельменей»!
Окунись в ароматы хлебокомбината!
Часть 1.
Часть 2.
Качество: SATRip
Формат: AVI
Видео кодек: XviD
Аудио кодек: MPEG Audio
Видео: 704 x 400 25 fps ~1538 kbps 0.22 bit/pixel
Аудио: 48000 Hz stereo 128 kbps avg

Media Info

General
Format : AVI
Format/Info : Audio Video Interleave
File size : 561 MiB
Duration : 46mn 49s
Overall bit rate : 1 676 Kbps
Writing library : VirtualDub build 32842/release
Video
ID : 0
Format : MPEG-4 Visual
Format profile : Advanced [email protected]
Format settings, BVOP : 2
Format settings, QPel : No
Format settings, GMC : No warppoints
Format settings, Matrix : Default (MPEG)
Codec ID : XVID
Codec ID/Hint : XviD
Duration : 46mn 49s
Bit rate : 1 538 Kbps
Width : 704 pixels
Height : 400 pixels
Display aspect ratio : 16:9
Frame rate : 25.000 fps
Color space : YUV
Chroma subsampling : 4:2:0
Bit depth : 8 bits
Scan type : Progressive
Compression mode : Lossy
Bits/(Pixel*Frame) : 0.218
Stream size : 515 MiB (92%)
Writing library : XviD 64
Audio
ID : 1
Format : MPEG Audio
Format version : Version 1
Format profile : Layer 3
Mode : Joint stereo
Mode extension : MS Stereo
Codec ID : 55
Codec ID/Hint : MP3
Duration : 46mn 49s
Bit rate mode : Constant
Bit rate : 128 Kbps
Channel(s) : 2 channels
Sampling rate : 48.0 KHz
Compression mode : Lossy
Stream size : 42.9 MiB (8%)
Alignment : Split accross interleaves
Interleave, duration : 40 ms (1.00 video frame)
Interleave, preload duration : 500 ms

Скриншоты



Снега и зрелищ

Продолжительность: 01:34:59
Размер: 1,09 Gb
Описание: - Почему Санта Клаус приезжает на оленях, а Дед Мороз приходит на автопилоте?
- Почему Снегурочка – это самая глухая девочка в мире, и чтобы до неё докричаться, надо пару десятков детей?
- Почему дети бегают и резвятся вокруг заживо срубленного дерева, и всё это называется праздником? Все это в новогодней программе "Шоу Уральские пельмени" "Снега и зрелищ!".
Качество: SATRip
Формат: AVI
Видео кодек: XviD
Аудио кодек: MPEG Audio
Видео: 720x400 25.00fps 1501kbps 0.22 bit/pixel
Аудио: 48000 Hz stereo 128 kbps avg

Media Info

Общее
Формат : AVI
Формат/Информация : Audio Video Interleave
Размер файла : 1,09 Гбайт
Продолжительность : 1 ч. 34 м.
Общий поток : 1638 Кбит/сек
Библиотека кодирования : VirtualDub build 32706/release
Видео
Идентификатор : 0
Формат : MPEG-4 Visual
Профиль формата : Advanced [email protected]
Параметр BVOP формата : 2
Параметр QPel формата : Нет
Параметр GMC формата : Без точки перехода
Параметр матрицы формата : Default (MPEG)
Идентификатор кодека : XVID
Идентификатор кодека/Подсказка : XviD
Продолжительность : 1 ч. 34 м.
Битрейт : 1501 Кбит/сек
Ширина : 704 пикселя
Высота : 400 пикселей
Соотношение сторон : 16:9
Частота кадров : 25,000 кадров/сек
Цветовое пространство : YUV
Субдискретизация насыщенности : 4:2:0
Битовая глубина : 8 бит
Тип развёртки : Прогрессивная
Метод сжатия : С потерями
Бит/(Пиксели*Кадры) : 0.213
Размер потока : 1020 Мбайт (92%)
Библиотека кодирования : XviD 1.2.1 (UTC 2008-12-04)
Аудио
Идентификатор : 1
Формат : MPEG Audio
Версия формата : Version 1
Профиль формата : Layer 3
Режим : Joint stereo
Расширение режима : MS Stereo
Идентификатор кодека : 55
Идентификатор кодека/Подсказка : MP3
Продолжительность : 1 ч. 34 м.
Вид битрейта : Постоянный
Битрейт : 128 Кбит/сек
Каналы : 2 канала
Частота : 48,0 КГц
Метод сжатия : С потерями
Размер потока : 87,0 Мбайт (8%)
Выравнивание : Разделение по промежуткам
Продолжительность промежутка : 40 мс. (1,00 видеокадр)
Время предзагрузки промежутка : 500 мс.

Скриншоты



Мужхитёры

Продолжительность: ~ 01:33:28
Размер: 1,16 Gb
Описание: Официальные дилеры юмора и сопредельных похохатываний представляют новую программу о настоящих мужчинах и хитрецах «Мужхитёры».
Часть 1
Часть 2
Качество: SATRip
Формат: AVI
Видео кодек: XviD
Аудио кодек: MPEG Audio
Видео: 704x400 (1.76:1) 25 fps ~1645 kbps avg
Аудио: 48000 Hz 2 ch ~128.00 kbps avg

Media Info

Общее
Формат : AVI
Формат/Информация : Audio Video Interleave
Размер файла : 600 Мбайт
Продолжительность : 46 м.
Общий поток : 1785 Кбит/сек
Библиотека кодирования : VirtualDub build 29808/release
Видео
Идентификатор : 0
Формат : MPEG-4 Visual
Профиль формата : Advanced [email protected]
Параметр BVOP формата : 2
Параметр QPel формата : Нет
Параметр GMC формата : Без точки перехода
Параметр матрицы формата : Default (H.263)
Режим смешивания : Сжатый битовый поток
Идентификатор кодека : XVID
Идентификатор кодека/Подсказка : XviD
Продолжительность : 46 м.
Битрейт : 1648 Кбит/сек
Ширина : 704 пикселя
Высота : 400 пикселей
Соотношение сторон : 16:9
Частота кадров : 25,000 кадров/сек
Цветовое пространство : YUV
Субдискретизация насыщенности : 4:2:0
Битовая глубина : 8 бит
Тип развёртки : Прогрессивная
Метод сжатия : С потерями
Бит/(Пиксели*Кадры) : 0.234
Размер потока : 554 Мбайт (92%)
Библиотека кодирования : XviD 64
Аудио
Идентификатор : 1
Формат : MPEG Audio
Версия формата : Version 1
Профиль формата : Layer 3
Режим : Joint stereo
Расширение режима : MS Stereo
Идентификатор кодека : 55
Идентификатор кодека/Подсказка : MP3
Продолжительность : 46 м.
Вид битрейта : Постоянный
Битрейт : 128 Кбит/сек
Каналы : 2 канала
Частота : 48,0 КГц
Метод сжатия : С потерями
Задержка видео : 8 мс.
Размер потока : 43,0 Мбайт (7%)
Выравнивание : Разделение по промежуткам
Продолжительность промежутка : 40 мс. (1,00 видеокадр)
Время предзагрузки промежутка : 500 мс.

Скриншоты



Женское: - Щас я

Продолжительность: ~ 01:33:50
Размер: 1,07 Gb
Описание: Вот и пришло 8 марта - ужас для всех мужчин. И "Уральские пельмени" подготовили для всех женщин шоу-программу. Со сцены ребята из команды в юмористической форме поиздеваются над мужчинами и с поздравят всех женщин с их весенним праздником.
Часть 1
Часть 2
Качество: SATRip
Формат: AVI
Видео кодек: XviD
Аудио кодек: MPEG Audio
Видео: 720x400 (1.80:1) 25 fps ~1500 kbps avg
Аудио: 48000 Hz 2 ch ~128.00 kbps avg

Media Info

Общее
Формат : AVI
Формат/Информация : Audio Video Interleave
Размер файла : 556 Мбайт
Продолжительность : 47 м.
Общий поток : 1640 Кбит/сек
Библиотека кодирования : VirtualDub build 29808/release
Видео
Идентификатор : 0
Формат : MPEG-4 Visual
Профиль формата : Advanced [email protected]
Параметр BVOP формата : 2
Параметр QPel формата : Нет
Параметр GMC формата : Без точки перехода
Параметр матрицы формата : Default (MPEG)
Идентификатор кодека : XVID
Идентификатор кодека/Подсказка : XviD
Продолжительность : 47 м.
Битрейт : 1502 Кбит/сек
Ширина : 720 пикселей
Высота : 400 пикселей
Соотношение сторон : 16:9
Частота кадров : 25,000 кадров/сек
Цветовое пространство : YUV
Субдискретизация насыщенности : 4:2:0
Битовая глубина : 8 бит
Тип развёртки : Прогрессивная
Метод сжатия : С потерями
Бит/(Пиксели*Кадры) : 0.209
Размер потока : 509 Мбайт (92%)
Библиотека кодирования : XviD 1.2.1 (UTC 2008-12-04)
Аудио
Идентификатор : 1
Формат : MPEG Audio
Версия формата : Version 1
Профиль формата : Layer 3
Режим : Joint stereo
Расширение режима : MS Stereo
Идентификатор кодека : 55
Идентификатор кодека/Подсказка : MP3
Продолжительность : 47 м.
Вид битрейта : Постоянный
Битрейт : 128 Кбит/сек
Каналы : 2 канала
Частота : 48,0 КГц
Метод сжатия : С потерями
Размер потока : 43,4 Мбайт (8%)
Выравнивание : Разделение по промежуткам
Продолжительность промежутка : 40 мс. (1,00 видеокадр)
Время предзагрузки промежутка : 500 мс.

Скриншоты



Зе BAD-2

Продолжительность: ~ 01:33:58
Размер: 1.22 Gb
Описание: Весёлые парни в мандариновых рубашках не дадут соскучиться и подарят отличное настроение всей семье. У юмора «Уральских пельменей» нет возрастных ограничений, они избегают «шуток ниже пояса» и на их концертах пятилетние дети смеются рядом с 50-ти летними взрослыми. Этот выпуск продолжает уникальный спецпроект от официальных дилеров Белого Ю мора- "Шоу Уральских пельменей", в котором вы увидите новую подборку юмористических скетчей, которые ранее были показаны на концертах, но по различным причинам не попали в эфир.
Часть 1
Часть 2
Качество: SATRip
Формат: AVI
Видео кодек: XviD
Аудио кодек: MPEG Audio
Видео: 704x400 (1.76:1) 25 fps ~1749 kbps avg
Аудио: 48000 Hz 2 ch ~128.00 kbps avg

Media Info

Общее
Формат : AVI
Формат/Информация : Audio Video Interleave
Размер файла : 637 Мбайт
Продолжительность : 47 м.
Общий поток : 1888 Кбит/сек
Программа кодирования : VirtualDubMod 1.5.10.2 (build 2540/release)
Библиотека кодирования : VirtualDubMod build 2540/release
Видео
Идентификатор : 0
Формат : MPEG-4 Visual
Профиль формата : Advanced [email protected]
Параметр BVOP формата : 2
Параметр QPel формата : Нет
Параметр GMC формата : Без точки перехода
Параметр матрицы формата : Default (MPEG)
Идентификатор кодека : XVID
Идентификатор кодека/Подсказка : XviD
Продолжительность : 47 м.
Битрейт : 1750 Кбит/сек
Ширина : 704 пикселя
Высота : 400 пикселей
Соотношение сторон : 16:9
Частота кадров : 25,000 кадров/сек
Цветовое пространство : YUV
Субдискретизация насыщенности : 4:2:0
Битовая глубина : 8 бит
Тип развёртки : Прогрессивная
Метод сжатия : С потерями
Бит/(Пиксели*Кадры) : 0.249
Размер потока : 591 Мбайт (93%)
Библиотека кодирования : XviD 65
Аудио
Идентификатор : 1
Формат : MPEG Audio
Версия формата : Version 1
Профиль формата : Layer 3
Режим : Joint stereo
Расширение режима : MS Stereo
Идентификатор кодека : 55
Идентификатор кодека/Подсказка : MP3
Продолжительность : 47 м.
Вид битрейта : Постоянный
Битрейт : 128 Кбит/сек
Каналы : 2 канала
Частота : 48,0 КГц
Метод сжатия : С потерями
Размер потока : 43,2 Мбайт (7%)
Выравнивание : Соединение по промежуткам
Продолжительность промежутка : 40 мс. (1,00 видеокадр)
Время предзагрузки промежутка : 504 мс.

Скриншоты



Худеем в тесте

Продолжительность: ~ 01:33:29
Размер: 1.23 Gb
Описание: Наступила весна, а вы не знаете как и где сбросить свой вес? Уральские пельмени уже всё за Вас делали, лишних килограммов после просмотра этого выпуска Худеем в тесте вы точно потеряете. Вам расскажут все приемы и хитрости для похудения. А смешные шутки гарантируют актеры команды, а смех как говорят не только продлевают жизнь но и лишние кило убирает.
Часть 1
Часть 2
Качество: SATRip
Формат: AVI
Видео кодек: XviD
Аудио кодек: MPEG Audio
Видео: 720x400 (1.80:1) 25 fps ~1750 kbps avg
Аудио: 48000 Hz 2 ch ~128.00 kbps avg

Media Info

Общее
Формат : AVI
Формат/Информация : Audio Video Interleave
Размер файла : 631 Мбайт
Продолжительность : 46 м.
Общий поток : 1889 Кбит/сек
Программа кодирования : VirtualDubMod 1.5.10.2 (build 2540/release)
Библиотека кодирования : VirtualDubMod build 2540/release
Видео
Идентификатор : 0
Формат : MPEG-4 Visual
Профиль формата : Advanced [email protected]
Параметр BVOP формата : 2
Параметр QPel формата : Нет
Параметр GMC формата : Без точки перехода
Параметр матрицы формата : Default (MPEG)
Идентификатор кодека : XVID
Идентификатор кодека/Подсказка : XviD
Продолжительность : 46 м.
Битрейт : 1751 Кбит/сек
Ширина : 720 пикселей
Высота : 400 пикселей
Соотношение сторон : 16:9
Частота кадров : 25,000 кадров/сек
Цветовое пространство : YUV
Субдискретизация насыщенности : 4:2:0
Битовая глубина : 8 бит
Тип развёртки : Прогрессивная
Метод сжатия : С потерями
Бит/(Пиксели*Кадры) : 0.243
Размер потока : 585 Мбайт (93%)
Библиотека кодирования : XviD 65
Аудио
Идентификатор : 1
Формат : MPEG Audio
Версия формата : Version 1
Профиль формата : Layer 3
Режим : Joint stereo
Расширение режима : MS Stereo
Идентификатор кодека : 55
Идентификатор кодека/Подсказка : MP3
Продолжительность : 46 м.
Вид битрейта : Постоянный
Битрейт : 128 Кбит/сек
Каналы : 2 канала
Частота : 48,0 КГц
Метод сжатия : С потерями
Размер потока : 42,7 Мбайт (7%)
Выравнивание : Соединение по промежуткам
Продолжительность промежутка : 40 мс. (1,00 видеокадр)
Время предзагрузки промежутка : 504 мс.

Скриншоты



Май-На

Продолжительность: ~ 00:47:00
Размер: 554 Мb
Описание: Весна – лучшее время для всего нового. Кто-то устраивает генеральную уборку в квартире или в своём, захламлённом за зиму, гараже. Кто-то облагораживает территорию на своих огородах и дачных участках, а кто-то отправляется в магазин за покупками. «Уральские пельмени» научат тебя, как правильно проводить весенние выходные, чтобы пребывать в хорошем настроении все лето.
Часть 1
Часть 2
Качество: SATRip
Формат: AVI
Видео кодек: XviD
Аудио кодек: MPEG Audio
Видео: 720x400 (1.80:1) 25 fps ~1499 kbps avg
Аудио: 48000 Hz 2 ch ~128.00 kbps avg

Media Info

Общее
Формат : AVI
Формат/Информация : Audio Video Interleave
Размер файла : 554 Мбайт
Продолжительность : 47 м.
Общий поток : 1638 Кбит/сек
Программа кодирования : VirtualDubMod 1.5.10.3 (build 2550/release)
Библиотека кодирования : VirtualDub build 32842/release
Видео
Идентификатор : 0
Формат : MPEG-4 Visual
Профиль формата : Advanced [email protected]
Параметр BVOP формата : 2
Параметр QPel формата : Нет
Параметр GMC формата : Без точки перехода
Параметр матрицы формата : Default (MPEG)
Идентификатор кодека : XVID
Идентификатор кодека/Подсказка : XviD
Продолжительность : 47 м.
Битрейт : 1500 Кбит/сек
Ширина : 720 пикселей
Высота : 400 пикселей
Соотношение сторон : 16:9
Частота кадров : 25,000 кадров/сек
Цветовое пространство : YUV
Субдискретизация насыщенности : 4:2:0
Битовая глубина : 8 бит
Тип развёртки : Прогрессивная
Метод сжатия : С потерями
Бит/(Пиксели*Кадры) : 0.208
Размер потока : 508 Мбайт (92%)
Библиотека кодирования : XviD 63
Аудио
Идентификатор : 1
Формат : MPEG Audio
Версия формата : Version 1
Профиль формата : Layer 3
Режим : Joint stereo
Расширение режима : MS Stereo
Идентификатор кодека : 55
Идентификатор кодека/Подсказка : MP3
Продолжительность : 47 м.
Вид битрейта : Постоянный
Битрейт : 128 Кбит/сек
Каналы : 2 канала
Частота : 48,0 КГц
Метод сжатия : С потерями
Размер потока : 43,3 Мбайт (8%)
Выравнивание : Соединение по промежуткам
Продолжительность промежутка : 40 мс. (1,00 видеокадр)
Время предзагрузки промежутка : 504 мс.
Библиотека кодирования : LAME3.98r
Настройки программы : -m j -V 4 -q 0 -lowpass 17 -b 128

Скриншоты



На Гоа бобра не ищут

Продолжительность: ~ 00:47:53
Размер: 597 Мb
Описание: Летние каникулы закончились. Но «Шоу «Уральских пельменей» продолжает дарить позитивное настроение и сеять любовь и веселье! На этот раз речь пойдет о летних отпусках и отдыхе в жарких странах.
Часть 1
Часть 2
Качество: SATRip
Формат: AVI
Видео кодек: DivX
Аудио кодек: MPEG Audio
Видео: 720x400 (1.80:1) 25 fps 1600 kbps avg 0.22 bit/pixel
Аудио: 48000 Hz 2 ch 128.00 kbps avg

Media Info

General
Complete name : Na.Goa.bobra.ne.ischut.01.avi
Format : AVI
Format/Info : Audio Video Interleave
File size : 597 MiB
Duration : 47mn 53s
Overall bit rate : 1 742 Kbps
Writing application : transcode-1.1.5
Video
ID : 0
Format : MPEG-4 Visual
Format settings, BVOP : Yes
Format settings, QPel : No
Format settings, GMC : No warppoints
Format settings, Matrix : Default (H.263)
Codec ID : DX50
Codec ID/Hint : DivX 5
Duration : 47mn 53s
Bit rate : 1 601 Kbps
Width : 720 pixels
Height : 400 pixels
Display aspect ratio : 16:9
Frame rate : 25.000 fps
Color space : YUV
Chroma subsampling : 4:2:0
Bit depth : 8 bits
Scan type : Progressive
Compression mode : Lossy
Bits/(Pixel*Frame) : 0.222
Stream size : 548 MiB (92%)
Writing library : Intel(R) MPEG-4 encoder based on Intel(R) IPP 6.1 build 137.20[6.1.137.763]
Audio
ID : 1
Format : MPEG Audio
Format version : Version 1
Format profile : Layer 3
Mode : Joint stereo
Mode extension : MS Stereo
Codec ID : 55
Codec ID/Hint : MP3
Duration : 47mn 52s
Bit rate mode : Constant
Bit rate : 128 Kbps
Channel(s) : 2 channels
Sampling rate : 48.0 KHz
Compression mode : Lossy
Stream size : 43.8 MiB (7%)
Alignment : Aligned on interleaves
Interleave, duration : 24 ms (0.60 video frame)
Interleave, preload duration : 48 ms
Writing library : LAME3.98.2

Скриншоты



Люди в белых зарплатах

Продолжительность: ~ 2 х 00:47:00
Размер: 1.45 Gb
Описание: Весёлые парни в мандариновых рубашках не дадут соскучиться и подарят отличное настроение всей семье. У юмора «Уральских пельменей» нет возрастных ограничений, они избегают «шуток ниже пояса» и на их концертах пятилетние дети смеются рядом с 50-ти летними взрослыми. Новое комедийное шоу включает в себя как самостоятельные сценические истории, так и импровизации с залом, а также смешные сценки со звёздами, которые пришли посмотреть на любимую команду и неожиданно для себя оказались на сцене.
Часть 1
Часть 2
Качество: SATRip
Формат: MKV
Видео кодек: MPEG-4 AVC
Аудио кодек: AC3 Dolby Digital
Видео: 704 x 400 (1.77:1) 25.00 fps ~1 950 kbps avg 0.277 bit/pixel
Аудио: 48000 Hz 2 ch 192.00 kbps avg

Media Info

General
Формат : Matroska
Версия формата : Version 4 / Version 2
Размер файла : 744 Мбайт
Продолжительность : 48 м.
Общий поток : 2134 Кбит/сек
Название фильма : Уральские Пельмени. Люди в белых зарплатах. Часть 1 / 2013 [email protected]=-
Дата кодирования : UTC 2013-10-19 01:21:40
Программа кодирования : mkvmerge v6.4.1 ('Omega Point') built on Sep 16 2013 22:05:10
Библиотека кодирования : libebml v1.3.0 + libmatroska v1.4.1
Видео
Идентификатор : 1
Формат : AVC
Формат/Информация : Advanced Video Codec
Профиль формата : [email protected]
Параметр CABAC формата : Да
Параметр ReFrames формата : 8 кадров
Идентификатор кодека : V_MPEG4/ISO/AVC
Продолжительность : 48 м.
Битрейт : 1940 Кбит/сек
Ширина : 704 пикселя
Высота : 400 пикселей
Соотношение сторон : 16:9
Режим частоты кадров : Постоянный
Частота кадров : 25,000 кадров/сек
Цветовое пространство : YUV
Субдискретизация насыщенности : 4:2:0
Битовая глубина : 8 бит
Тип развёртки : Прогрессивная
Бит/(Пиксели*Кадры) : 0.276
Размер потока : 662 Мбайт (89%)
Заголовок : Rip by nnlabetik
Библиотека кодирования : x264 core 133 r2334 a3ac64b
Настройки программы : cabac=1 / ref=8 / deblock=1:-2:-1 / analyse=0x3:0x113 / me=umh / subme=9 / psy=1 / psy_rd=1.00:0.10 / mixed_ref=1 / me_range=32 / chroma_me=1 / trellis=2 / 8x8dct=1 / cqm=0 / deadzone=21,11 / fast_pskip=1 / chroma_qp_offset=-2 / threads=4 / lookahead_threads=1 / sliced_threads=0 / nr=0 / decimate=1 / interlaced=0 / bluray_compat=0 / constrained_intra=0 / bframes=9 / b_pyramid=2 / b_adapt=2 / b_bias=0 / direct=3 / weightb=1 / open_gop=0 / weightp=2 / keyint=250 / keyint_min=25 / scenecut=40 / intra_refresh=0 / rc_lookahead=50 / rc=2pass / mbtree=0 / bitrate=1940 / ratetol=1.0 / qcomp=0.70 / qpmin=0 / qpmax=69 / qpstep=4 / cplxblur=20.0 / qblur=0.5 / vbv_maxrate=50000 / vbv_bufsize=62500 / nal_hrd=none / ip_ratio=1.40 / pb_ratio=1.30 / aq=1:1.00
Язык : Russian
Default : Да
Forced : Нет
Аудио
Идентификатор : 2
Формат : AC-3
Формат/Информация : Audio Coding 3
Расширение режима : CM (complete main)
Параметр Endianness формата : Big
Идентификатор кодека : A_AC3
Продолжительность : 48 м.
Вид битрейта : Постоянный
Битрейт : 192 Кбит/сек
Каналы : 2 канала
Расположение каналов : Front: L R
Частота : 48,0 КГц
Битовая глубина : 16 бит
Метод сжатия : С потерями
Размер потока : 66,9 Мбайт (9%)
Язык : Russian
Default : Да
Forced : Нет

Скриншоты



Елочка Беги

Размер: 1.45 Gb
Описание: Мы, россияне, ждем Новый год всей страной, всем сердцем, всей печенью. В этот день мы должны забыть обиды и простить долги. Именно поэтому отдел ипотечного кредитования не празднует Новый год. В этот праздник мы все становимся немного детьми: мы все слушаем «старшего» и не хотим спать после 12. Это время чудес! Если вы верите в чудо, то оно обязательно дойдёт до квартиры и будет ночевать дома! Это время героев — как ещё можно назвать людей, которые работают 1-го января?! Это особенная ночь, когда китайский порох наводит в России шорох. В этот вечер дети, чтобы получить Джобса, учат стихи Пушкина! В это праздник мы встречаемся с самыми близкими людьми и превращаемся в самых необычных животных. И, наконец, в новом году только «Уральские пельмени» могут составить конкуренцию мандаринам за праздничным столом, тем более их не нужно чистить, чтобы получить удовольствие — надо всего лишь 31 декабря переключиться на СТС и посмотреть новое шоу Уральских Пельменей «Елочка, БЕГИ!».
Часть 1
Часть 2
Качество: WEBRip-AVC
Формат: MKV
Видео кодек: MPEG-4 AVC
Аудио кодек: AC3 Dolby Digital
Видео: 1024 x 576 (1.77:1) 25.00 fps ~2 030 kbps avg 0.138 bit/pixel
Аудио: 48000 Hz 2 ch 192.00 kbps avg

Media Info

Общее
Уникальный идентификатор : 191943994940086125419872468026554851117 (0x906711999A4FAF8F971E087F537C1F2D)
Полное имя : C:\Uralskie pelmeni\Elochka begi 2013\Elochka.begi.chast_2. 2013.x264(AVC).mkv
Формат : Matroska
Версия формата : Version 4 / Version 2
Размер файла : 745 Мбайт
Продолжительность : 46 м.
Общий поток : 2221 Кбит/сек
Название фильма : Уральские пельмени. Елочка Беги / 2013 [email protected]=-
Дата кодирования : UTC 2014-01-02 16:44:39
Программа кодирования : mkvmerge v6.6.0 ('The Edge Of The In Between') built on Dec 1 2013 17:55:00
Библиотека кодирования : libebml v1.3.0 + libmatroska v1.4.1
Видео
Идентификатор : 1
Формат : AVC
Формат/Информация : Advanced Video Codec
Профиль формата : [email protected]
Параметр CABAC формата : Да
Параметр ReFrames формата : 8 кадров
Идентификатор кодека : V_MPEG4/ISO/AVC
Продолжительность : 46 м.
Битрейт : 2028 Кбит/сек
Ширина : 1024 пикселя
Высота : 576 пикселей
Соотношение сторон : 16:9
Режим частоты кадров : Постоянный
Частота кадров : 25,000 кадров/сек
Цветовое пространство : YUV
Субдискретизация насыщенности : 4:2:0
Битовая глубина : 8 бит
Тип развёртки : Прогрессивная
Бит/(Пиксели*Кадры) : 0.138
Размер потока : 666 Мбайт (89%)
Заголовок : Rip by nnlabetik
Библиотека кодирования : x264 core 138 r2358 9e941d1
Настройки программы : cabac=1 / ref=8 / deblock=1:-2:-1 / analyse=0x3:0x113 / me=umh / subme=10 / psy=1 / psy_rd=1.00:0.00 / mixed_ref=1 / me_range=32 / chroma_me=1 / trellis=2 / 8x8dct=1 / cqm=1 / deadzone=21,11 / fast_pskip=1 / chroma_qp_offset=-2 / threads=6 / lookahead_threads=1 / sliced_threads=0 / nr=0 / decimate=1 / interlaced=0 / bluray_compat=0 / constrained_intra=0 / bframes=9 / b_pyramid=2 / b_adapt=2 / b_bias=0 / direct=3 / weightb=1 / open_gop=0 / weightp=2 / keyint=250 / keyint_min=25 / scenecut=40 / intra_refresh=0 / rc_lookahead=50 / rc=2pass / mbtree=0 / bitrate=2028 / ratetol=1.0 / qcomp=0.70 / qpmin=3 / qpmax=69 / qpstep=4 / cplxblur=20.0 / qblur=0.5 / vbv_maxrate=50000 / vbv_bufsize=62500 / nal_hrd=none / ip_ratio=1.40 / pb_ratio=1.30 / aq=1:1.00
Язык : Russian
Default : Да
Forced : Нет
Аудио
Идентификатор : 2
Формат : AC-3
Формат/Информация : Audio Coding 3
Расширение режима : CM (complete main)
Параметр Endianness формата : Big
Идентификатор кодека : A_AC3
Продолжительность : 46 м.
Вид битрейта : Постоянный
Битрейт : 192 Кбит/сек
Каналы : 2 канала
Расположение каналов : Front: L R
Частота : 44,1 КГц
Битовая глубина : 16 бит
Метод сжатия : С потерями
Размер потока : 64,4 Мбайт (9%)
Язык : Russian
Default : Да
Forced : Нет

Скриншоты



АДАМ в хорошие руки!

Продолжительность: ~ 2 х 00:49:00
Размер: 1.76 Gb
Описание: В пятницу 7 марта в 21:00 смотри премьеру нового концерта «Уральских пельменей» «АДАМ в хорошие руки». Тебя ждет весеннее шоу о мужчинах и их прекрасных половинках, которые ими управляют. Добрые сильные рыцари шоу «Уральских пельменей» расскажут о том, как проходят тайные собрания подкаблучников, и проведут мастер-класс по «упрощению» прекрасных и милых всевластных дам. Также «Уральские пельмени» подскажут, как покорить сердце противоположной половинки за 45 секунд, зачем дамам нужен бабушкин платок на первом свидании и, к каким последствиям приводят свидания вслепую.
Часть 1
Часть 2
Качество: SATRip
Формат: MKV
Видео кодек: MPEG-4 AVC
Аудио кодек: AC3
Видео: 1280 x 720 25.00 fps ~ 2200 kbps
Аудио: 44100 Hz 2 ch 192.00 kbps avg

Media Info

Формат : Matroska
Версия формата : Version 4 / Version 2
Размер файла : 868 Мбайт
Продолжительность : 48 м.
Общий поток : 2484 Кбит/сек
Дата кодирования : UTC 2014-03-07 20:30:13
Программа кодирования : mkvmerge v6.8.0 ('Theme for Great Cities') 64bit built on Mar 2 2014 21:34:26
Библиотека кодирования : libebml v1.3.0 + libmatroska v1.4.1
Видео
Идентификатор : 1
Формат : AVC
Формат/Информация : Advanced Video Codec
Профиль формата : [url=mailto:[email protected]][email protected][/url]
Параметр CABAC формата : Да
Параметр ReFrames формата : 1 кадр
Параметр GOP формата : M=1, N=60
Идентификатор кодека : V_MPEG4/ISO/AVC
Продолжительность : 48 м.
Ширина : 1280 пикселей
Высота : 720 пикселей
Соотношение сторон : 16:9
Режим частоты кадров : Переменный
Частота кадров : 25,000 кадров/сек
Цветовое пространство : YUV
Субдискретизация насыщенности : 4:2:0
Битовая глубина : 8 бит
Тип развёртки : Прогрессивная
Default : Да
Forced : Нет
Аудио
Идентификатор : 2
Формат : AAC
Формат/Информация : Advanced Audio Codec
Профиль формата : LC
Идентификатор кодека : A_AAC
Продолжительность : 48 м.
Каналы : 2 канала
Расположение каналов : Front: L R
Частота : 44,1 КГц
Метод сжатия : С потерями
Default : Да
Forced : Нет

Скриншоты



Грачи пролетели

Продолжительность: ~ 2 х 00:47:00
Размер: 1.17 Gb
Описание: Юмористическая картина «Уральских пельменей» о зимних ожиданиях и весенних надеждах. Грачи обязательно пролетят, а весна все равно наступит!
Часть 1
Часть 2
Качество: SATRip
Формат: AVI
Видео кодек: XviD MPEG-4
Аудио кодек: MPEG Layer 3
Видео: 720x400 (1.80:1), 25 fps ~1628 kbps avg 0.23 bit/pixel
Аудио: 48000 Hz 2 ch 128.00 kbps avg

Media Info

General
Format : AVI
Format/Info : Audio Video Interleave
File size : 600 MiB
Duration : 46mn 20s
Overall bit rate : 1 810 Kbps
Writing library : VirtualDub build 30080/release
Video
ID : 0
Format : MPEG-4 Visual
Format profile : Advanced [email protected]
Format settings, BVOP : 2
Format settings, QPel : No
Format settings, GMC : No warppoints
Format settings, Matrix : Default (H.263)
Muxing mode : Packed bitstream
Codec ID : XVID
Codec ID/Hint : XviD
Duration : 46mn 20s
Bit rate : 1 672 Kbps
Width : 720 pixels
Height : 400 pixels
Display aspect ratio : 16:9
Frame rate : 25.000 fps
Color space : YUV
Chroma subsampling : 4:2:0
Bit depth : 8 bits
Scan type : Progressive
Compression mode : Lossy
Bits/(Pixel*Frame) : 0.232
Stream size : 554 MiB (92%)
Writing library : XviD 64
Audio
ID : 1
Format : MPEG Audio
Format version : Version 1
Format profile : Layer 3
Codec ID : 55
Codec ID/Hint : MP3
Duration : 46mn 20s
Bit rate mode : Constant
Bit rate : 128 Kbps
Channel(s) : 2 channels
Sampling rate : 48.0 KHz
Compression mode : Lossy
Stream size : 42.4 MiB (7%)
Alignment : Split accross interleaves
Interleave, duration : 40 ms (1.00 video frame)
Interleave, preload duration : 500 ms

Скриншоты



Пель и мень спешат на помощь

Продолжительность: ~ 2 х 00:48:00
Размер: 1.04 Gb
Описание: «Шоу Уральские Пельмени» представляют новую программу «ПЕЛЬ и МЕНЬ СМЕШАТ НА ПОМОЩЬ» - все что вы недоувидели в остальных программах – неожиданные постановки, ляпы, истории с открытым финалом и прочие творческие эксперименты, покорившие даже самих экспериментаторов! Ну а все, что мы недописали - мы нарисовали!
Часть 1
Часть 2
Качество: SATRip
Формат: AVI
Видео кодек: XviD MPEG-4
Аудио кодек: MPEG Layer 3
Видео: 720x400 (1.80:1) 25 fps ~1 497 kbps avg 0.23 bit/pixel
Аудио: 48000 Hz 2 ch 128.00 kbps avg

Media Info

General
Format : AVI
Format/Info : Audio Video Interleave
File size : 523 MiB
Duration : 44mn 42s
Overall bit rate : 1 635 Kbps
Writing application : VirtualDubMod 1.5.10.3 | www.virtualdub-fr.org || (build 2550/release)
Writing library : VirtualDub build 35491/release
Video
ID : 0
Format : MPEG-4 Visual
Format profile : Advanced [email protected]
Format settings, BVOP : 2
Format settings, QPel : No
Format settings, GMC : No warppoints
Format settings, Matrix : Default (H.263)
Codec ID : XVID
Codec ID/Hint : XviD
Duration : 44mn 42s
Bit rate : 1 497 Kbps
Width : 720 pixels
Height : 400 pixels
Display aspect ratio : 16:9
Frame rate : 25.000 fps
Color space : YUV
Chroma subsampling : 4:2:0
Bit depth : 8 bits
Scan type : Progressive
Compression mode : Lossy
Bits/(Pixel*Frame) : 0.208
Stream size : 479 MiB (92%)
Writing library : XviD 1.2.1 (UTC 2008-12-04)
Audio
ID : 1
Format : MPEG Audio
Format version : Version 1
Format profile : Layer 3
Mode : Joint stereo
Mode extension : MS Stereo
Codec ID : 55
Codec ID/Hint : MP3
Duration : 44mn 42s
Bit rate mode : Constant
Bit rate : 128 Kbps
Channel(s) : 2 channels
Sampling rate : 48.0 KHz
Compression mode : Lossy
Stream size : 40.9 MiB (8%)
Alignment : Aligned on interleaves
Interleave, duration : 40 ms (1.00 video frame)
Interleave, preload duration : 504 ms
Writing library : LAME3.99r
Encoding settings : -m j -V 4 -q 2 -lowpass 17 -b 128

Скриншоты



Колидоры искуств

Продолжительность: ~ 2 х 00:46:00
Размер: 1.04 Gb
Описание: Шоу «Уральских пельменей» об искусстве сквозь пенсне сатиры и юмора! Именно здесь ты поймешь, что можно быть грамотеем в орфографии, но профаном в искусстве. Либо можно всегда писать с ошибками, но создавать нетленные произведения искусства!
Часть 1
Часть 2
Качество: SATRip
Формат: AVI
Видео кодек: DivX
Аудио кодек: MPEG Layer 3
Видео: 720x400 (1.80:1) 25 fps ~1 501 kbps avg 0.208 bit/pixel
Аудио: 48000 Hz 2 ch 128.00 kbps avg

Media Info

General
Format : AVI
Format/Info : Audio Video Interleave
File size : 527 MiB
Duration : 45mn 0s
Overall bit rate : 1 638 Kbps
Writing library : VirtualDub build 35491/release
Video
ID : 0
Format : MPEG-4 Visual
Format settings, BVOP : 1
Format settings, QPel : No
Format settings, GMC : No warppoints
Format settings, Matrix : Default (H.263)
Muxing mode : Packed bitstream
Codec ID : DX50
Codec ID/Hint : DivX 5
Duration : 45mn 0s
Bit rate : 1 501 Kbps
Width : 720 pixels
Height : 400 pixels
Display aspect ratio : 16:9
Frame rate : 25.000 fps
Color space : YUV
Chroma subsampling : 4:2:0
Bit depth : 8 bits
Scan type : Progressive
Compression mode : Lossy
Bits/(Pixel*Frame) : 0.208
Stream size : 483 MiB (92%)
Writing library : DivX 6.8.5 (UTC 2009-08-20)
Audio
ID : 1
Format : MPEG Audio
Format version : Version 1
Format profile : Layer 3
Mode : Joint stereo
Mode extension : MS Stereo
Codec ID : 55
Codec ID/Hint : MP3
Duration : 45mn 0s
Bit rate mode : Constant
Bit rate : 128 Kbps
Channel(s) : 2 channels
Sampling rate : 48.0 KHz
Compression mode : Lossy
Stream size : 41.2 MiB (8%)
Alignment : Split accross interleaves
Interleave, duration : 40 ms (1.00 video frame)
Interleave, preload duration : 500 ms

Скриншоты



В вуз не дуем!

Продолжительность: ~ 2 х 00:48:00
Размер: 1.08 Gb
Описание: У всех школьников начинается самое любимое время года, это лето. Для кого то это отдых, но только не для выпускников и команды Уральских пельменей. Одни готовятся к поступления в ВУЗы, а другие новую шоу программу для нас "В ВУЗ не дуем!". Ведь Уральские пельмени давно уже позаканчивали своё обучение, но всё ещё помнят как это поступать. У каждого из команды Уральские пельмени были свои смешные моменты и они готовы это нам показать.
Часть 1
Часть 2
Качество: SATRip
Формат: AVI
Видео кодек: DivX
Аудио кодек: MPEG Layer 3
Видео: 720x400 (1.80:1) 25 fps ~1 503 kbps avg 0.209 bit/pixel
Аудио: 48000 Hz 2 ch 128.00 kbps avg

Media Info

General
Format : AVI
Format/Info : Audio Video Interleave
File size : 571 MiB
Duration : 48mn 34s
Overall bit rate : 1 644 Kbps
Writing library : Boilsoft AVI tool build 1/release
Video
ID : 0
Format : MPEG-4 Visual
Format settings, BVOP : Yes
Format settings, QPel : No
Format settings, GMC : No warppoints
Format settings, Matrix : Default (H.263)
Codec ID : DX50
Codec ID/Hint : DivX 5
Duration : 48mn 34s
Bit rate : 1 503 Kbps
Width : 720 pixels
Height : 400 pixels
Display aspect ratio : 16:9
Frame rate : 25.000 fps
Color space : YUV
Chroma subsampling : 4:2:0
Bit depth : 8 bits
Scan type : Progressive
Compression mode : Lossy
Bits/(Pixel*Frame) : 0.209
Stream size : 522 MiB (91%)
Writing library : Intel(R) MPEG-4 encoder based on Intel(R) IPP 6.1 build 137.20[6.1.137.763]
Audio
ID : 1
Format : MPEG Audio
Format version : Version 1
Format profile : Layer 3
Mode : Joint stereo
Mode extension : MS Stereo
Codec ID : 55
Codec ID/Hint : MP3
Duration : 48mn 34s
Bit rate mode : Constant
Bit rate : 128 Kbps
Channel(s) : 2 channels
Sampling rate : 48.0 KHz
Compression mode : Lossy
Stream size : 44.5 MiB (8%)
Alignment : Aligned on interleaves
Interleave, duration : 24 ms (0.60 video frame)
Interleave, preload duration : 504 ms
Writing library : LAME3.98.2

Скриншоты



Виза есть - ума не надо

Продолжительность: ~ 01:07:00
Размер: 942 Мb
Описание:Весёлые парни в мандариновых рубашках не дадут соскучиться и подарят отличное настроение всей семье. У юмора «Уральских пельменей» нет возрастных ограничений, они избегают «шуток ниже пояса» и на их концертах пятилетние дети смеются рядом с 50-ти летними взрослыми. Новое комедийное шоу включает в себя как самостоятельные сценические истории, так и импровизации с залом, а также смешные сценки со звёздами, которые пришли посмотреть на любимую команду и неожиданно для себя оказались на сцене.
Качество: SATRip
Формат: AVI
Видео кодек: DivX
Аудио кодек: MPEG Layer 3
Видео: 720x400 (1.80:1) 25 fps ~1 504 kbps avg 0.209 bit/pixel
Аудио: 48000 Hz 2 ch 128.00 kbps avg

Media Info

General
Format : AVI
Format/Info : Audio Video Interleave
File size : 942 MiB
Duration : 1h 7mn
Overall bit rate : 1 937 Kbps
Writing library : VirtualDub build 32817/release
Video
ID : 0
Format : MPEG-4 Visual
Format profile : Advanced [email protected]
Format settings, BVOP : 2
Format settings, QPel : No
Format settings, GMC : No warppoints
Format settings, Matrix : Default (MPEG)
Codec ID : XVID
Codec ID/Hint : XviD
Duration : 1h 7mn
Bit rate : 1 800 Kbps
Width : 720 pixels
Height : 400 pixels
Display aspect ratio : 16:9
Frame rate : 25.000 fps
Color space : YUV
Chroma subsampling : 4:2:0
Bit depth : 8 bits
Scan type : Progressive
Compression mode : Lossy
Bits/(Pixel*Frame) : 0.250
Stream size : 875 MiB (93%)
Writing library : XviD 1.2.1 (UTC 2008-12-04)
Audio
ID : 1
Format : MPEG Audio
Format version : Version 1
Format profile : Layer 3
Mode : Joint stereo
Mode extension : MS Stereo
Codec ID : 55
Codec ID/Hint : MP3
Duration : 1h 7mn
Bit rate mode : Constant
Bit rate : 128 Kbps
Channel(s) : 2 channels
Sampling rate : 48.0 KHz
Compression mode : Lossy
Stream size : 62.2 MiB (7%)
Alignment : Split accross interleaves
Interleave, duration : 40 ms (1.00 video frame)
Interleave, preload duration : 500 ms

Скриншоты



Волшебники страны ОЙ!

Продолжительность: ~ 01:07:00
Размер: 929 Мb
Описание:Хорошо живется в Королевстве кривых... Возможно будет Винипутч и все все все. Найдет свою лошадку "Ежик в сметане" ... В общем многие взрослые и детские фантазии будут воплощены "Пельмешариками" в новой программе "ВОЛШЕБНИКИ страны ОЙ", по окончанию которой вы поймете - " А лихо в стране чудес! "
Качество: SATRip
Формат: AVI
Видео кодек: XviD
Аудио кодек: MPEG Layer 3
Видео: 720x400 (1.80:1) 25 fps ~1 800 kbps avg 0.250 bit/pixel
Аудио: 48000 Hz 2 ch 128.00 kbps avg

Media Info

General
Format : AVI
Format/Info : Audio Video Interleave
File size : 929 MiB
Duration : 1h 7mn
Overall bit rate : 1 938 Kbps
Writing application : VirtualDubMod 1.5.10.3 | www.virtualdub-fr.org || (build 2550/release)
Writing library : VirtualDub build 29808/release
Video
ID : 0
Format : MPEG-4 Visual
Format profile : Advanced [email protected]
Format settings, BVOP : 2
Format settings, QPel : No
Format settings, GMC : No warppoints
Format settings, Matrix : Default (H.263)
Codec ID : XVID
Codec ID/Hint : XviD
Duration : 1h 7mn
Bit rate : 1 800 Kbps
Width : 720 pixels
Height : 400 pixels
Display aspect ratio : 16:9
Frame rate : 25.000 fps
Color space : YUV
Chroma subsampling : 4:2:0
Bit depth : 8 bits
Scan type : Progressive
Compression mode : Lossy
Bits/(Pixel*Frame) : 0.250
Stream size : 863 MiB (93%)
Writing library : XviD 1.2.1 (UTC 2008-12-04)
Audio
ID : 1
Format : MPEG Audio
Format version : Version 1
Format profile : Layer 3
Codec ID : 55
Codec ID/Hint : MP3
Duration : 1h 7mn
Bit rate mode : Constant
Bit rate : 128 Kbps
Channel(s) : 2 channels
Sampling rate : 48.0 KHz
Compression mode : Lossy
Stream size : 61.4 MiB (7%)
Alignment : Aligned on interleaves
Interleave, duration : 40 ms (1.00 video frame)
Interleave, preload duration : 504 ms
Writing library : LAME3.99r
Encoding settings : -m s -V 4 -q 2 -lowpass 17 -b 128

Скриншоты



Музыка нас слизала

Продолжительность: ~ 01:07:00
Размер: 938 Мb
Описание:Весёлые парни в мандариновых рубашках не дадут соскучиться и подарят отличное настроение всей семье. У юмора «Уральских пельменей» нет возрастных ограничений, они избегают «шуток ниже пояса» и на их концертах пятилетние дети смеются рядом с 50-ти летними взрослыми. Новое комедийное шоу включает в себя как самостоятельные сценические истории, так и импровизации с залом, а также смешные сценки со звёздами, которые пришли посмотреть на любимую команду и неожиданно для себя оказались на сцене.
Качество: SATRip
Формат: AVI
Видео кодек: XviD
Аудио кодек: MPEG Layer 3
Видео: 720x400 (1.80:1) 25 fps ~1 800 kbps avg 0.250 bit/pixel
Аудио: 48000 Hz 2 ch 128.00 kbps avg

Media Info

General
Format : AVI
Format/Info : Audio Video Interleave
File size : 938 MiB
Duration : 1h 7mn
Overall bit rate : 1 937 Kbps
Writing application : VirtualDubMod 1.5.10.3 | www.virtualdub-fr.org || (build 2550/release)
Writing library : VirtualDub build 29808/release
Video
ID : 0
Format : MPEG-4 Visual
Format profile : Advanced [email protected]
Format settings, BVOP : 2
Format settings, QPel : No
Format settings, GMC : No warppoints
Format settings, Matrix : Default (H.263)
Codec ID : XVID
Codec ID/Hint : XviD
Duration : 1h 7mn
Bit rate : 1 799 Kbps
Width : 720 pixels
Height : 400 pixels
Display aspect ratio : 16:9
Frame rate : 25.000 fps
Color space : YUV
Chroma subsampling : 4:2:0
Bit depth : 8 bits
Scan type : Progressive
Compression mode : Lossy
Bits/(Pixel*Frame) : 0.250
Stream size : 871 MiB (93%)
Writing library : XviD 1.2.1 (UTC 2008-12-04)
Audio
ID : 1
Format : MPEG Audio
Format version : Version 1
Format profile : Layer 3
Codec ID : 55
Codec ID/Hint : MP3
Duration : 1h 7mn
Bit rate mode : Constant
Bit rate : 128 Kbps
Channel(s) : 2 channels
Sampling rate : 48.0 KHz
Compression mode : Lossy
Stream size : 62.0 MiB (7%)
Alignment : Aligned on interleaves
Interleave, duration : 40 ms (1.00 video frame)
Interleave, preload duration : 504 ms
Writing library : LAME3.99r
Encoding settings : -m s -V 4 -q 1 -lowpass 17 -b 128

Скриншоты



Внимание ! Раздача ведётся путём добавления новых файлов

Внимание! Раздача ведётся путём добавления новых файлов; при каждом добавлении создаётся новый торрент. Чтобы начать до качку нового файла, пользователям необходимо сделать следующее:
(1) остановить скачивание,
(2) удалить старый торрент у себя из клиента (старые файлы удалять не надо),
(3) скачать новый торрент и запустить его у себя в клиенте вместо старого, при этом указать клиенту путь в старую папку куда и должно происходить скачивание новых файлов.
Ваш клиент при этом должен произвести хеширование (проверку) старой папки (если не производит сам - помогите ему сделать это), и будет докачивать только те файлы которых у вас ещё нет. Старые файлы при этом не удаляются, а продолжают раздаваться!
Добавлен выпуск: Музыка нас слизала
Яндекс.Метрика
Рейтинг@Mail.ru