Сарила: Затерянная земля / The Legend of Sarila (Нэнси Севард / Nancy Florence Savar) [2013 г., мультфильм, приключения, BDRip, 1080p, OverUnder / Вертикальная стереопара] Dub + Original (Eng)

 

Создавать темы 27-Дек-2014 07:55

-Сарила: Затерянная земля / The Legend of Sarila-- Производство: Канада (CMG, Alliance Films, CarpeDiem Film & TV, 10th Ave Productions)
Год выпуска: 2013 г.
Жанр: мультфильм, приключения
Продолжительность: 01:21:36
Перевод: Профессиональный (полное дублирование)
Оригинальный аудиопоток: английский
Режиссер: Нэнси Севард / Nancy Florence Savar-В ролях: Кристофер Пламмер, Рашель Лефевр, Дастин Миллиган, Тим Розон, Женевьев Бюжо, Джеймс Кидни, Тайрон Бенскин, Анджела Галуппо, Илайс Туфексис, Роберт Хигден-Описание: Далеко на севере лагерь эскимосов-кочевников находится под угрозой голода и вымирания. Шаман племени, Крулик, не в силах помочь, и людей охватывает отчаяние. Некоторые из них обретают надежду в древней легенде о далёкой Сариле — земле, спрятанной среди ледников, в которой не существует холода и голода. Легенда гласит, что только те, кто чист сердцем, могут попасть в это священное место. Трое молодых людей соглашаются отправиться на поиски Сарилы, чтобы спасти своё племя. Среди них — юный Маркусси, обладающий способностями шамана. Предчувствуя, что его власть находится под угрозой, старый шаман пытается избавиться от своего соперника с помощью сил зла, пытаясь помешать миссии трёх молодых героев. Постепенно Маркусси понимает, что он должен не только найти Сарилу, но и разоблачить предателя Крулика…-
Качество видео: BDRip
Контейнер: MKV
Формат 3D: OverUnder / Вертикальная стереопара
Порядок ракурсов: левый ракурс первый
Стандарт разрешения: 1080p
Видео кодек: H.264
Аудио кодек: AC3
Видео: AVC / [email protected] / 23,976 fps / 1920х2080 / 9032 Кбит/сек
Аудио: Русский / AC3 / 48 KHz / 5.1 ch / 448 Кбит/сек
Аудио #2: Английский / AC3 / 48 KHz / 5.1 ch / 640 Кбит/сек
Cубтитры: отсутствуют
ВНИМАНИЕ ! На встроенных ТВ-плеерах работать не будет!!!
ТВ Samsung в названии которого есть надпись Ultra HD , и LG Ultra HD 800 серии воспроизводят полные стереопары встроенными плеерами
Железные плееры на которых воспроизводятся полные стереопары:Popcorn C-200 , Dune HD Smart D1 , Dune HD DUO , Dune HD Smart H1 , Dune HD Smart B1 , Dune HD Max , Dune HD TV-303D , Dune HD Base 3D, Philips HMP7001

Media Info

Общее
Уникальный идентификатор : 245386933014632716125522852614950378905 (0xB89BCDE1B7A0A8FB950F4AEBAB545D99)
Полное имя : E:\закачки\The Legend of Sarila.Rip by SeRoGa00.mkv
Формат : Matroska
Версия формата : Version 2
Размер файла : 5,89 Гбайт
Продолжительность : 1 ч. 21 м.
Общий поток : 10,3 Мбит/сек
Дата кодирования : UTC 2014-12-24 05:07:52
Программа кодирования : mkvmerge v3.4.0 ('Rapunzel') сборка от May 15 2010 09:38:20
Библиотека кодирования : libebml v0.8.0 + libmatroska v0.9.0
Видео
Идентификатор : 1
Формат : AVC
Формат/Информация : Advanced Video Codec
Профиль формата : [email protected]
Параметр CABAC формата : Да
Параметр ReFrames формата : 4 кадра
Идентификатор кодека : V_MPEG4/ISO/AVC
Продолжительность : 1 ч. 21 м.
Битрейт : 9032 Кбит/сек
Ширина : 1920 пикселей
Высота : 2080 пикселей
Соотношение сторон : 0,923
Частота кадров : 23,976 кадра/сек
Цветовое пространство : YUV
Субдискретизация насыщенности : 4:2:0
Битовая глубина : 8 бит
Тип развёртки : Прогрессивная
Бит/(Пиксели*Кадры) : 0.094
Размер потока : 5,15 Гбайт (87%)
Заголовок : Rip by SeRoGa00
Библиотека кодирования : x264 core 142 r2479 dd79a61
Настройки программы : cabac=1 / ref=4 / deblock=1:-3:-3 / analyse=0x3:0x113 / me=umh / subme=9 / psy=1 / psy_rd=1.00:0.15 / mixed_ref=1 / me_range=24 / chroma_me=1 / trellis=2 / 8x8dct=1 / cqm=0 / deadzone=21,11 / fast_pskip=1 / chroma_qp_offset=-3 / threads=9 / lookahead_threads=1 / sliced_threads=0 / nr=0 / decimate=1 / interlaced=0 / bluray_compat=0 / constrained_intra=0 / bframes=8 / b_pyramid=2 / b_adapt=2 / b_bias=0 / direct=3 / weightb=1 / open_gop=0 / weightp=2 / keyint=250 / keyint_min=23 / scenecut=40 / intra_refresh=0 / rc_lookahead=60 / rc=crf / mbtree=1 / crf=18.0 / qcomp=0.60 / qpmin=10 / qpmax=69 / qpstep=4 / vbv_maxrate=30000 / vbv_bufsize=30000 / crf_max=0.0 / nal_hrd=none / filler=0 / ip_ratio=1.40 / aq=1:1.00
Язык : English
Аудио #1
Идентификатор : 2
Формат : AC-3
Формат/Информация : Audio Coding 3
Расширение режима : CM (complete main)
Идентификатор кодека : A_AC3
Продолжительность : 1 ч. 21 м.
Вид битрейта : Постоянный
Битрейт : 448 Кбит/сек
Каналы : 6 каналов
Расположение каналов : Front: L C R, Side: L R, LFE
Частота : 48,0 КГц
Битовая глубина : 16 бит
Метод сжатия : С потерями
Размер потока : 261 Мбайт (4%)
Язык : Russian
Аудио #2
Идентификатор : 3
Формат : AC-3
Формат/Информация : Audio Coding 3
Расширение режима : CM (complete main)
Идентификатор кодека : A_AC3
Продолжительность : 1 ч. 21 м.
Вид битрейта : Постоянный
Битрейт : 640 Кбит/сек
Каналы : 6 каналов
Расположение каналов : Front: L C R, Side: L R, LFE
Частота : 48,0 КГц
Битовая глубина : 16 бит
Метод сжатия : С потерями
Размер потока : 374 Мбайт (6%)
Язык : English

Скриншоты

Яндекс.Метрика
Рейтинг@Mail.ru