Алиса знает, что делать! / Сезон: 1 / Серии: 13 из 24 (Игорь Ковалев, ...) [2013-2014 г., мультфильм, фантастика, фэнтези, приключения, WEB-DLRip] СТС [обновляемая]

 

Создавать темы 27-Дек-2014 07:38

-Алиса знает, что делать!-- Режиссер / Телекомпания:
Производство: Россия, Базелевс
Жанр: мультфильм, фантастика, фэнтези, приключения
Год выпуска: 2013-2014 г.-Мировая премьера: 16 ноября 2013-Режиссер: Игорь Ковалев, Ольга Баулина-В ролях: Валерий Сторожик, Дарья Мельникова, Евгений Донских, Дмитрий Назаров, Алексей Колган, Анна Ардова, Армен Джигарханян, Мирослава Карпович, Ольга Сирина, Ирина Гришина, ...-Описание:
На Земле 2093 год. Главной героине — Алисе Селезневой — 12 лет. Вместе со своими верными друзьями Алиса становится участницей невероятных приключений. Это история о подростках будущего, которые все больше задумываются о мире, его закономерностях и неожиданностях.-Сезон: 1
Серии: 13 из 24 серий
Продолжительность: ~ 00:26:00 мин серия-
Качество видео: WEB-DLRip
Контейнер: AVI
Видео кодек: XviD
Аудио кодек: AC-3
Видео: MPEG-4 Visual at 1685 Кбит/сек: 720 x 400 (1.800) at 25.000 fps: 0.23 Бит/Пиксели
Аудио: AC-3 at 192 Кбит/сек: 2 канала, 44,1 КГц
Cубтитры: отсутствуют
-

Список серий:

  • Тайна последнего истинокса
  • Опасные иллюзии
  • Капитаны
  • Равновесие
  • Мозги прочь!
  • Оракул на пенсии
  • Игры без правил
  • Песенный поединок
  • Взрывные детишки
  • Золотые балуны
  • Заложники Дибалы
  • Совершенство
  • Воскресная уклонистка

Media Info

Общее
Полное имя                               : E:\_Сериалы\Алиса знает, что делать! (2013)\Алиса знает, что делать! Серия 01 (2013).avi
Формат                                   : AVI
Формат/Информация                        : Audio Video Interleave
Размер файла                             : 351 Мбайт
Продолжительность                        : 26 м.
Общий поток                              : 1887 Кбит/сек
Программа кодирования                    : VirtualDubMod 1.5.10.3 | www.virtualdub-fr.org || (build 2550/release)
Библиотека кодирования                   : VirtualDubMod build 2550/release
Видео
Идентификатор                            : 0
Формат                                   : MPEG-4 Visual
Профиль формата                          : Advanced [email protected]
Параметр BVOP формата                    : 1
Параметр QPel формата                    : Нет
Параметр GMC формата                     : Без точки перехода
Параметр матрицы формата                 : Default (MPEG)
Идентификатор кодека                     : XVID
Идентификатор кодека/Подсказка           : XviD
Продолжительность                        : 26 м.
Битрейт                                  : 1685 Кбит/сек
Ширина                                   : 720 пикселей
Высота                                   : 400 пикселей
Соотношение сторон                       : 16:9
Частота кадров                           : 25,000 кадров/сек
Цветовое пространство                    : YUV
Субдискретизация насыщенности            : 4:2:0
Битовая глубина                          : 8 бит
Тип развёртки                            : Прогрессивная
Метод сжатия                             : С потерями
Бит/(Пиксели*Кадры)                      : 0.234
Размер потока                            : 314 Мбайт (89%)
Библиотека кодирования                   : XviD 64
Аудио
Идентификатор                            : 1
Формат                                   : AC-3
Формат/Информация                        : Audio Coding 3
Расширение режима                        : CM (complete main)
Параметр Endianness формата              : Big
Идентификатор кодека                     : 2000
Продолжительность                        : 26 м.
Вид битрейта                             : Постоянный
Битрейт                                  : 192 Кбит/сек
Каналы                                   : 2 канала
Расположение каналов                     : Front: L R
Частота                                  : 44,1 КГц
Битовая глубина                          : 16 бит
Метод сжатия                             : С потерями
Размер потока                            : 35,7 Мбайт (10%)
Выравнивание                             : Разделение по промежуткам
Продолжительность промежутка             : 40  мс. (1,00 видеокадр)
Время предзагрузки промежутка            : 500  мс.

Скриншот c названием фильма

Скриншоты:

ЕщЕ:

-

Внимание! Раздача ведётся путём добавления новых серий!

Раздача ведётся путём добавления новых серий; при каждом добавлении создаётся новый торрент.
Чтобы начать докачку новой серии, пользователям необходимо сделать следующее:
1. остановить скачивание,
2. удалить старый торрент у себя из клиента (старые серии удалять не надо),
3. скачать новый торрент и запустить его у себя в клиенте вместо старого, при этом указать клиенту путь в старую папку, куда и должно происходить скачивание новых серий.
Ваш клиент при этом должен произвести хеширование (проверку) старой папки (если не производит сам - помогите ему сделать это), и будет докачивать только те серии которых у вас ещё нет. Старые серии при этом не удаляются, а продолжают раздаваться!
Если, вы уже удалили старые серии, то предотвратить повторную закачку старых серий можно, отжав галочку в соответствующих местах при запуске нового торрента. По возможности, желательно не удалять старые серии как можно дольше, чтобы релизёр не столько продолжал раздавать старые серии, а смог сконцентрироваться на новых.
Совет для тех, кто не хочет ждать перехеширования:
Создайте ещё одну папку рядом с папкой сериала (рядом, а не в ней!!!). Каждую новую серию после удачной загрузки копируйте в новую папку так чтобы ваша основная папка всегда была пуста. Когда ваш новый торрент предложит вам закачать все файлы, выберете только последнюю. Для сидирования же укажите адрес новой папки.
Как закачать отдельный файл из торрента или докачать ранее пропущенные файлы торрента!
-

Как закачать отдельный файл

1. Открыть торрент
2. Снять галки с тех файлов торрента, которые мы не хотим закачивать. Оставляем только на нужных нам файлах (файле).
3. Нажать О.К.
В клиенте utorrent
Инструкция
1) Открыть торрент

2) Снять галки с тех файлов торрента, которые мы не хотим закачивать:
* либо вручную, снимая с каждого файла галку( скрин №1)
* либо, нажав кнопку "Снять метки (Select None)", сняв сразу со всех файлов(скрин №2)
№1

№2

Оставляем только на нужных нам файлах (файле).

3)Нажать О.К
-Добавлена тринадцатая серия первого сезона
Яндекс.Метрика
Рейтинг@Mail.ru