Подводный учебник по пикселям / The Underwater Pixelguide (Олав Верховен)[2012, Документальный, научно-познавательный, BDRip-AVC] от ExKinoRay

 

Создавать темы 19-Ноя-2013 02:41

Информация о фильме
Название: Подводный учебник по пикселям
Оригинальное название: The Underwater Pixelguide
Год выхода: 2012
Жанр: Документальный, научно-познавательный, путешествия, исследования, флора, фауна
Режиссер: Олав Верховен
О фильме:
Этот документальный фильм - беспрецедентное руководстве о подводной фотографии. Лучшие фотографы и кинематографисты посвятят вас во все свои тайны окенических съёмок. В мельчайших деталях вы увидите всё великолепие подводной океанской жизни!
Выпущено: Великобритания, Postorgasmickitchen
Продолжительность: 00:55:44
Перевод: Профессиональный одноголосый
Дата релиза: 18.11.2013

Примечания

Переведено и озвучено студией «Омикрон»
Файл
Кодек: H.264
Качество: BDRip (AVC)
Видео: MPEG-4 AVC, 2939 Кбит/с, 1024x576
Звук: Русский, английский (AC3, 2 ch, 192 Кбит/с)

MediaInfo

Общее
Уникальный идентификатор : 201233559888214590455414166445256830278 (0x97642C836D9FB96888BE059AB4E76D46)
Полное имя : E:Podvodnyj.uchebnik.po.pikseljam.2012.x264.BDRip.(AVC).ExKinoRay.mkv
Формат : Matroska
Размер файла : 1,29 Гбайт
Продолжительность : 55 м.
Общий поток : 3322 Кбит/сек
Название фильма : Podvodnyj.uchebnik.po.pikseljam.2012.x264.BDRip.(AVC).ExKinoRay
Дата кодирования : UTC 2013-11-18 18:11:24
Программа кодирования : mkvmerge v4.0.0 ('The Stars were mine') сборка от Jun 6 2010 16:18:42
Библиотека кодирования : libebml v1.0.0 + libmatroska v1.0.0
Видео
Идентификатор : 1
Формат : AVC
Формат/Информация : Advanced Video Codec
Профиль формата : [email protected]
Параметр CABAC формата : Да
Параметр ReFrames формата : 8 кадров
Идентификатор кодека : V_MPEG4/ISO/AVC
Продолжительность : 55 м.
Битрейт : 2939 Кбит/сек
Ширина : 1024 пикс.
Высота : 576 пикс.
Соотношение сторон : 16:9
Частота кадров : 24,000 кадр/сек
Цветовое пространство : YUV
Подвыборка цветности : 4:2:0
Битовая глубина : 8 бит
Тип развёртки : Прогрессивная
Бит/(Пиксели*Кадры) : 0.208
Размер потока : 1,12 Гбайт (86%)
Заголовок : Rip by Enigma-Vladislav71
Библиотека кодирования : x264 core 125 r2208 d9d2288
Настройки программы : cabac=1 / ref=8 / deblock=1:-2:-2 / analyse=0x3:0x133 / me=umh / subme=11 / psy=1 / psy_rd=1.00:0.00 / mixed_ref=1 / me_range=48 / chroma_me=1 / trellis=2 / 8x8dct=1 / cqm=0 / deadzone=21,11 / fast_pskip=0 / chroma_qp_offset=-2 / threads=3 / lookahead_threads=1 / sliced_threads=0 / nr=0 / decimate=0 / interlaced=0 / bluray_compat=0 / constrained_intra=0 / bframes=8 / b_pyramid=2 / b_adapt=2 / b_bias=0 / direct=3 / weightb=1 / open_gop=0 / weightp=2 / keyint=240 / keyint_min=23 / scenecut=40 / intra_refresh=0 / rc=2pass / mbtree=0 / bitrate=2939 / ratetol=1.0 / qcomp=0.60 / qpmin=10 / qpmax=51 / qpstep=4 / cplxblur=20.0 / qblur=0.5 / ip_ratio=1.40 / pb_ratio=1.30 / aq=1:1.00
Язык : English
Аудио #1
Идентификатор : 2
Формат : AC-3
Формат/Информация : Audio Coding 3
Расширение режима : CM (complete main)
Идентификатор кодека : A_AC3
Продолжительность : 55 м.
Вид битрейта : Постоянный
Битрейт : 192 Кбит/сек
Каналы : 2 канала
Расположение каналов : Front: L R
Частота : 48,0 КГц
Битовая глубина : 16 бит
Метод сжатия : С потерями
Размер потока : 76,5 Мбайт (6%)
Язык : Russian
Аудио #2
Идентификатор : 3
Формат : AC-3
Формат/Информация : Audio Coding 3
Расширение режима : CM (complete main)
Идентификатор кодека : A_AC3
Продолжительность : 55 м.
Вид битрейта : Постоянный
Битрейт : 192 Кбит/сек
Каналы : 2 канала
Расположение каналов : Front: L R
Частота : 48,0 КГц
Битовая глубина : 16 бит
Метод сжатия : С потерями
Размер потока : 76,5 Мбайт (6%)
Язык : English
Меню
00:00:00.000 : en:Chapter 01
00:06:47.166 : en:Chapter 02
00:10:31.375 : en:Chapter 03
00:14:10.790 : en:Chapter 04
00:19:26.750 : en:Chapter 05
00:22:11.916 : en:Chapter 06
00:34:01.833 : en:Chapter 07
00:36:11.291 : en:Chapter 08
00:40:51.750 : en:Chapter 09
00:49:37.250 : en:Chapter 10
00:49:55.208 : en:Chapter 11
Яндекс.Метрика
Рейтинг@Mail.ru