Неоспоримый 3 / Undisputed III: Redemption (Айзек Флорентайн / Isaac Florentine) [2010 г., боевик, драма, криминал, спорт, BDRip, 720p] MVO (СВ-Дубль) + AVO (Денис Строев, Владимир Королёв)+ VO (Неизвестный) + Original (Eng)

 

Создавать темы 26-Дек-2014 15:39

Неоспоримый 3 / Undisputed III: Redemption
Год выпуска: 2010
Производство: США
Жанр: боевик, драма, криминал, спорт
Продолжительность: 01:36:07
Перевод: Профессиональный (многоголосый, закадровый) СВ-Дубль
Перевод 2: Авторский (одноголосый, закадровый) Денис Строев
Перевод 3: Авторский (одноголосый, закадровый) Владимир Королёв
Перевод 4: Любительский (одноголосый, закадровый) Неизвестный
Оригинальный аудиопоток: английский
Субтитры: отсутствуют
Режиссер: Айзек Флорентайн / Isaac Florentine
В ролях: Скотт Эдкинс, Майкл Шеннон Дженкинс, Марк Иванир, Христо Шопов, Марко Зарор, Майкл Бэрал, Илрам Чои, Роберт Костанцо, Латиф Кроудер, Эстебан Куето
Описание: Юрий Бойка — российский чемпион подпольных боев без правил, постепенно оправляющийся от полученной в последнем поединке травмы, решает вернуться на ринг. Победив в бою нынешнего чемпиона тюрьмы «Чёрные Холмы», его босс — Гага — решает отправить его на международный чемпионат тюремных поединков. Поврежденное колено дает о себе знать в каждом бою и беспокоит Бойку, но он готов пройти до конца, чтобы сразиться с колумбийским бойцом и доказать, что он неоспоримый.
Сэмпл , , КиноПоиск
Качество видео: BDRip
Контейнер: MKV
Стандарт разрешения: 720p
Видео кодек: H.264
Аудио кодек: AC3
Видео: 1280х714, 3552 Kbps, 23.976 кадр/с, 0.162 bt/px
Аудио : AC-3, 448 Kbps, 6 ch, 48.0 KHz Rus СВ-Дубль
Аудио #2: AC-3, 448 Kbps, 6 ch, 48.0 KHz Rus Строев
Аудио #3: AC-3, 320 Kbps, 6 ch, 48.0 KHz Rus Королёв
Аудио #4: AC-3, 384 Kbps, 6 ch, 48.0 KHz Rus Неизвестный
Аудио #5: AC-3, 448 Kbps, 6 ch, 48.0 KHz Eng Original

Media Info

J:\UNDISPUTED_3(НЕОСПОРИМЫЙ_3).mkv
General
Unique ID : 202186754713604027682513647168739488372 (0x981BC0A58D9BBC359E39F3F9D7E23274)
Complete name : J:\UNDISPUTED_3(НЕОСПОРИМЫЙ_3).mkv
Format : Matroska
Format version : Version 1
File size : 3.84 GiB
Duration : 1h 36mn
Overall bit rate : 5 713 Kbps
Encoded date : UTC 2014-12-26 05:55:40
Writing application : mkvmerge v2.5.3 ('Boogie') built on Mar 7 2009 15:00:41
Writing library : libebml v0.7.7 + libmatroska v0.8.1
Video #1
ID : 1
Format : AVC
Format/Info : Advanced Video Codec
Format profile : [email protected]
Format settings, CABAC : Yes
Format settings, ReFrames : 9 frames
Codec ID : V_MPEG4/ISO/AVC
Duration : 1h 36mn
Bit rate : 3 552 Kbps
Width : 1 280 pixels
Height : 714 pixels
Display aspect ratio : 16:9
Frame rate mode : Constant
Frame rate : 23.976 fps
Color space : YUV
Chroma subsampling : 4:2:0
Bit depth : 8 bits
Scan type : Progressive
Bits/(Pixel*Frame) : 0.162
Stream size : 2.38 GiB (62%)
Writing library : x264 core 130 r2273 b3065e6
Encoding settings : cabac=1 / ref=9 / deblock=1:-3:-3 / analyse=0x3:0x133 / me=umh / subme=11 / psy=1 / psy_rd=1.00:0.05 / mixed_ref=1 / me_range=32 / chroma_me=1 / trellis=2 / 8x8dct=1 / cqm=0 / deadzone=21,11 / fast_pskip=0 / chroma_qp_offset=-3 / threads=6 / lookahead_threads=1 / sliced_threads=0 / nr=0 / decimate=1 / interlaced=0 / bluray_compat=0 / constrained_intra=0 / bframes=8 / b_pyramid=2 / b_adapt=2 / b_bias=0 / direct=1 / weightb=1 / open_gop=0 / weightp=2 / keyint=250 / keyint_min=23 / scenecut=40 / intra_refresh=0 / rc=crf / mbtree=0 / crf=18.0 / qcomp=0.60 / qpmin=0 / qpmax=51 / qpstep=4 / ip_ratio=1.40 / pb_ratio=1.30 / aq=1:1.00
Language : English
Default : Yes
Forced : No
Audio #2
ID : 2
Format : AC-3
Format/Info : Audio Coding 3
Mode extension : CM (complete main)
Format settings, Endianness : Big
Codec ID : A_AC3
Duration : 1h 36mn
Bit rate mode : Constant
Bit rate : 448 Kbps
Channel(s) : 6 channels
Channel positions : Front: L C R, Side: L R, LFE
Sampling rate : 48.0 KHz
Bit depth : 16 bits
Compression mode : Lossy
Stream size : 308 MiB (8%)
Title : MVO СВ-Дубль
Language : Russian
Default : Yes
Forced : No
Audio #3
ID : 3
Format : AC-3
Format/Info : Audio Coding 3
Mode extension : CM (complete main)
Format settings, Endianness : Big
Codec ID : A_AC3
Duration : 1h 36mn
Bit rate mode : Constant
Bit rate : 448 Kbps
Channel(s) : 6 channels
Channel positions : Front: L C R, Side: L R, LFE
Sampling rate : 48.0 KHz
Bit depth : 16 bits
Compression mode : Lossy
Stream size : 308 MiB (8%)
Title : AVO Строев
Language : Russian
Default : No
Forced : No
Audio #4
ID : 4
Format : AC-3
Format/Info : Audio Coding 3
Mode extension : CM (complete main)
Format settings, Endianness : Big
Codec ID : A_AC3
Duration : 1h 36mn
Bit rate mode : Constant
Bit rate : 320 Kbps
Channel(s) : 6 channels
Channel positions : Front: L C R, Side: L R, LFE
Sampling rate : 48.0 KHz
Bit depth : 16 bits
Compression mode : Lossy
Stream size : 220 MiB (6%)
Title : AVO Королёв
Language : Russian
Default : No
Forced : No
Audio #5
ID : 5
Format : AC-3
Format/Info : Audio Coding 3
Mode extension : CM (complete main)
Format settings, Endianness : Big
Codec ID : A_AC3
Duration : 1h 36mn
Bit rate mode : Constant
Bit rate : 384 Kbps
Channel(s) : 6 channels
Channel positions : Front: L C R, Side: L R, LFE
Sampling rate : 48.0 KHz
Bit depth : 16 bits
Compression mode : Lossy
Stream size : 264 MiB (7%)
Title : VO Неизвестный
Language : Russian
Default : No
Forced : No
Audio #6
ID : 6
Format : AC-3
Format/Info : Audio Coding 3
Mode extension : CM (complete main)
Format settings, Endianness : Big
Codec ID : A_AC3
Duration : 1h 36mn
Bit rate mode : Constant
Bit rate : 448 Kbps
Channel(s) : 6 channels
Channel positions : Front: L C R, Side: L R, LFE
Sampling rate : 48.0 KHz
Bit depth : 16 bits
Compression mode : Lossy
Stream size : 308 MiB (8%)
Language : English
Default : No
Forced : No

log x.264

x264 [info]: frame I:1210  Avg QP:15.40  size: 94554
x264 [info]: frame P:34311 Avg QP:16.73 size: 36385
x264 [info]: frame B:102622 Avg QP:19.24 size: 12450
x264 [info]: consecutive B-frames: 3.6% 5.4% 10.6% 27.8% 15.8% 27.8% 4.2% 3.5% 1.3%
x264 [info]: mb I I16..4: 6.0% 81.7% 12.4%
x264 [info]: mb P I16..4: 1.6% 18.2% 1.6% P16..4: 28.6% 32.5% 10.0% 1.3% 0.1% skip: 6.1%
x264 [info]: mb B I16..4: 0.3% 2.2% 0.2% B16..8: 34.1% 21.6% 3.1% direct: 5.0% skip:33.6% L0:42.4% L1:45.6% BI:12.0%
x264 [info]: 8x8 transform intra:83.7% inter:63.3%
x264 [info]: coded y,uvDC,uvAC intra: 85.3% 79.4% 50.2% inter: 21.0% 16.2% 2.1%
x264 [info]: i16 v,h,dc,p: 38% 7% 4% 51%
x264 [info]: i8 v,h,dc,ddl,ddr,vr,hd,vl,hu: 10% 8% 7% 9% 12% 13% 13% 13% 15%
x264 [info]: i4 v,h,dc,ddl,ddr,vr,hd,vl,hu: 12% 8% 8% 8% 15% 14% 14% 10% 12%
x264 [info]: i8c dc,h,v,p: 36% 27% 19% 17%
x264 [info]: Weighted P-Frames: Y:9.8% UV:5.5%
x264 [info]: ref P L0: 49.1% 10.0% 18.5% 6.5% 5.1% 3.5% 3.1% 1.8% 1.8% 0.4% 0.0%
x264 [info]: ref B L0: 77.2% 10.8% 5.0% 2.6% 1.8% 1.5% 0.8% 0.3%
x264 [info]: ref B L1: 94.0% 6.0%
x264 [info]: kb/s:3666.18
x264 [total]: encoded 138143 frames, 4.07 fps, 3666.18 kb/s

Скриншоты

Яндекс.Метрика
Рейтинг@Mail.ru