Нерассказанная история Соединённых Штатов / The Untold History of the United States / Сезон: 1 / Серии: 1-7 из 10 + предисловие (Оливер Стоун / Oliver Stone) [2012 г., документальный, история, HDTVRip, 720p] VO (1 канал) [обновляемая]

 

Создавать темы 26-Дек-2014 03:43

Нерассказанная история Соединённых Штатов / The Untold History of the United States- Год выпуска: 2012 г.
Производство: США , Ixtlan Productions, Showtime
Жанр: документальный, история
Продолжительность: 8x ~ 00:58:00
Мировая премьера: 12 ноября 2012
Перевод: Профессиональный (одноголосый, закадровый)
Режиссёр: Оливер Стоун / Oliver Stone-В ролях: Оливер Стоун, Алан Ширман, Джим Уорд, Андре Соглиуззо, Крис Эджерли, Алекс Видов, Грег Берг, Генри Уоллес, Гарри С. Трумэн-Описание: Атомные бомбёжки Хиросимы и Нагасаки, главная роль в развязывании холодной войны, финансирование исламских фундаменталистов ради борьбы с СССР и их союзниками, нарушение президентами США Конституции своей страны – эти и многие другие примеры неуклонно свидетельствуют о том, что исторические факты часто толкуются так, как это выгодно политикам.
Режиссёр фильма Оливер Стоун, обладатель множества кинопремий, в том числе трёх "Оскаров", считает, что понятие американской исключительности прочно завладело умами американцев и пытается ответить на вопрос: "Может ли Америка измениться?.."
- *8.8 *8.1Качество видео: HDTVRip (720p)
Контейнер: MKV
Видео кодек: AVC
Аудио кодек: AC3
Видео: 1280x720, ~ 3200 kbps avg, 25 fps, 0.139 bit/pixel
Аудио: 384 kbps, 2 ch, 48.0 kHz
Cубтитры: отсутствуют

Содержание


0. Предисловие: Оливер Стоун в программе Познер (10.11.2014)
1. World War Two / Вторая мировая война
2. Roosevelt, Truman and Wallace / Рузвельт, Трумэн, Уоллес
3. The Bomb / Бомба
4. The Cold War 1945-1950 / Холодная война 1945-1950
5. The 50s - Eisenhower, the Bomb & the Third World / 50-е годы: Эйзенхауэр, бомба и страны третьего мира
6. JFK - To the Brink / Джон Фицджеральд Кеннеди: На грани
7. Johnson, Nixon & Vietnam: Reversal of Fortune / Джонсон, Никсон и Вьетнам: Как отвернулась фортуна

8. Reagan, Gorbachev & Third World - Rise of the Right / Рейган, Горбачёев и третий мир: Усиление правых сил
9. Bush & Clinton - Squandered Peace and New World Order / Буш, Клинтон: Победа США, новый мировой порядок
10. Bush & Obama - Age of Terror / Буш, Обама: Эра террора

Media Info

Общее
Уникальный идентификатор : 206000417424798855473553813015963466691 (0x9AFA3CBC4008835BBBBD36DA26A17BC3)
Полное имя : 01. Вторая мировая война.mkv
Формат : Matroska
Версия формата : Version 2
Размер файла : 1,48 Гбайт
Продолжительность : 57 м.
Общий поток : 3658 Кбит/сек
Дата кодирования : UTC 2014-11-13 19:12:14
Программа кодирования : mkvmerge v5.3.0 ('I could have danced') built on Feb 9 2012 10:38:07
Библиотека кодирования : libebml v1.2.3 + libmatroska v1.3.0
Видео
Идентификатор : 1
Формат : AVC
Формат/Информация : Advanced Video Codec
Профиль формата : [email protected]
Параметр CABAC формата : Да
Параметр ReFrames формата : 6 кадров
Идентификатор кодека : V_MPEG4/ISO/AVC
Продолжительность : 57 м.
Битрейт : 3201 Кбит/сек
Ширина : 1280 пикселей
Высота : 720 пикселей
Соотношение сторон : 16:9
Режим частоты кадров : Постоянный
Частота кадров : 25,000 кадров/сек
Цветовое пространство : YUV
Субдискретизация насыщенности : 4:2:0
Битовая глубина : 8 бит
Тип развёртки : Прогрессивная
Бит/(Пиксели*Кадры) : 0.139
Размер потока : 1,29 Гбайт (88%)
Библиотека кодирования : x264 core 142 r2431 ac76440
Настройки программы : cabac=1 / ref=6 / deblock=1:-3:-3 / analyse=0x3:0x113 / me=umh / subme=9 / psy=1 / psy_rd=1.00:0.00 / mixed_ref=1 / me_range=32 / chroma_me=1 / trellis=2 / 8x8dct=1 / cqm=0 / deadzone=21,11 / fast_pskip=0 / chroma_qp_offset=-2 / threads=6 / lookahead_threads=1 / sliced_threads=0 / nr=0 / decimate=0 / interlaced=0 / bluray_compat=0 / constrained_intra=0 / bframes=6 / b_pyramid=2 / b_adapt=2 / b_bias=0 / direct=3 / weightb=1 / open_gop=0 / weightp=2 / keyint=250 / keyint_min=25 / scenecut=40 / intra_refresh=0 / rc=crf / mbtree=0 / crf=21.0 / qcomp=0.60 / qpmin=0 / qpmax=60 / qpstep=4 / ip_ratio=1.30 / pb_ratio=1.30 / aq=1:0.80
Язык : English
Default : Да
Forced : Нет
Основные цвета : BT.709
Характеристики трансфера : BT.709
Коэффициенты матрицы : BT.709
Аудио
Идентификатор : 2
Формат : AC-3
Формат/Информация : Audio Coding 3
Расширение режима : CM (complete main)
Параметр Endianness формата : Big
Идентификатор кодека : A_AC3
Продолжительность : 57 м.
Вид битрейта : Постоянный
Битрейт : 384 Кбит/сек
Каналы : 2 канала
Расположение каналов : Front: L R
Частота : 48,0 КГц
Битовая глубина : 16 бит
Метод сжатия : С потерями
Размер потока : 159 Мбайт (10%)
Default : Да
Forced : Нет

Скриншот c названием фильма

-

Внимание! Раздача ведётся путём добавления новых серий!

При каждом добавлении создаётся новый торрент-файл. Чтобы начать загрузку новой серии, пользователям необходимо сделать следующее:
1. остановить скачивание,
2. удалить старый торрент-файл у себя из клиента (старые серии удалять не надо),
3. скачать новый торрент и запустить его у себя в клиенте вместо старого, при этом указать путь в старую папку, куда и должно происходить скачивание новых серий.
Ваш клиент при этом должен произвести хеширование (проверку) старой папки (если не производит сам - помогите ему сделать это), и будет докачивать только те серии, которых у вас ещё нет. Старые серии при этом не удаляются, а продолжают раздаваться!
Eсли вы уже удалили старые серии, то предотвратить повторную закачку можно, отжав галочку в соответствующих местах при запуске нового торрента.
-
Яндекс.Метрика
Рейтинг@Mail.ru