Сестра Эммануэль / Suor Emanuelle (Джузеппе Вери/ Giuseppe Vari (as Joseph Warren)) [1977 г., Драма, эротика, DVDRip] VO

 

Создавать темы 26-Дек-2014 03:37

-Сестра Эммануэль / Suor Emanuelle«She sought refuge from her unquenchable thirst for love ...»-- Производство: Италия
Год выпуска: 1977 г.
Жанр: Драма, эротика
Продолжительность: 01:31:40
Мировая премьера: 10 августа 1977
Перевод: Любительский (одноголосый, закадровый)
Режиссер: Джузеппе Вери/ Giuseppe Vari (as Joseph Warren)-В ролях: Лаура Гемсер, Моника Занчи, Габриэле Тинти, Vinja Locatelli, Пия Велси, Патриция Сакки, Дирче Фунари, Марио Де Вико, Рик Батталья, Амброджо Молтени-Описание: В монашеский пансионат отправляется Моника, развратная и беспринципная девушка. Сестра Эммануэль, которая нашла в монастыре приют от грехов мира, пытается наставить её на путь истинный, но манипуляции Моники заводят Эммануэль в мир обмана и греха.-
Качество видео: DVDRip
Контейнер: AVI
Видео кодек: XviD
Аудио кодек: AC3
Видео: 688x448 (1.54:1), 25 fps, XviD build 50 ~1870 kbps avg, 0.24 bit/pixel
Аудио: 48 kHz, AC3 Dolby Digital, 2/0 (L,R) ch, ~192 kbps
Аудио #2: 48 kHz, AC3 Dolby Digital, 2/0 (L,R) ch, ~192 kbps (original)
Cубтитры: отсутствуют

Media Info

бщее
Полное имя : E:\Фильмы\Sestra.Emmanuel.1977.XviD.DVDRip.avi
Формат : AVI
Формат/Информация : Audio Video Interleave
Размер файла : 1,45 Гбайт
Продолжительность : 1 ч. 31 м.
Общий поток : 2270 Кбит/сек
Программа кодирования : VirtualDubModRus 1.5.10.2 (build 2542/release)
Библиотека кодирования : VirtualDubMod build 2542/release
Видео
Идентификатор : 0
Формат : MPEG-4 Visual
Профиль формата : Advanced [email protected]
Параметр BVOP формата : 2
Параметр QPel формата : Нет
Параметр GMC формата : Без точки перехода
Параметр матрицы формата : Default (MPEG)
Идентификатор кодека : XVID
Идентификатор кодека/Подсказка : XviD
Продолжительность : 1 ч. 31 м.
Битрейт : 1872 Кбит/сек
Ширина : 688 пикселей
Высота : 448 пикселей
Соотношение сторон : 3:2
Частота кадров : 25,000 кадров/сек
Цветовое пространство : YUV
Субдискретизация насыщенности : 4:2:0
Битовая глубина : 8 бит
Тип развёртки : Прогрессивная
Метод сжатия : С потерями
Бит/(Пиксели*Кадры) : 0.243
Размер потока : 1,20 Гбайт (82%)
Библиотека кодирования : XviD 1.2.1 (UTC 2008-12-04)
Аудио #1
Идентификатор : 1
Формат : AC-3
Формат/Информация : Audio Coding 3
Расширение режима : CM (complete main)
Параметр Endianness формата : Big
Идентификатор кодека : 2000
Продолжительность : 1 ч. 31 м.
Вид битрейта : Постоянный
Битрейт : 192 Кбит/сек
Каналы : 2 канала
Расположение каналов : Front: L R
Частота : 48,0 КГц
Битовая глубина : 16 бит
Метод сжатия : С потерями
Размер потока : 126 Мбайт (8%)
Выравнивание : Разделение по промежуткам
Продолжительность промежутка : 40 мс. (1,00 видеокадр)
Время предзагрузки промежутка : 500 мс.
Аудио #2
Идентификатор : 2
Формат : AC-3
Формат/Информация : Audio Coding 3
Расширение режима : CM (complete main)
Параметр Endianness формата : Big
Идентификатор кодека : 2000
Продолжительность : 1 ч. 31 м.
Вид битрейта : Постоянный
Битрейт : 192 Кбит/сек
Каналы : 2 канала
Расположение каналов : Front: L R
Частота : 48,0 КГц
Битовая глубина : 16 бит
Метод сжатия : С потерями
Размер потока : 126 Мбайт (8%)
Выравнивание : Разделение по промежуткам
Продолжительность промежутка : 40 мс. (1,00 видеокадр)
Время предзагрузки промежутка : 500 мс.
Скриншоты
Яндекс.Метрика
Рейтинг@Mail.ru