Плачущий убийца / Crying Freeman (Кристоф Ганс / Christophe Gans) [1995 г., боевик, триллер, криминал, DVD5] DVO Sub Rus + Original (Eng)

 

Создавать темы 19-Ноя-2013 02:24

-Плачущий убийца / Crying Freeman--«Однажды в жизни появляется идеальный убийца» Производство: Канада, Франция, Япония, США
Год выпуска: 1995 г.
Жанр: боевик, триллер, криминал
Продолжительность: 01:37:2
Мировая премьера: 14 сентября 1995
Перевод: Профессиональный (двухголосый, закадровый)
Оригинальный аудиопоток: английский
Режиссер: Кристоф Ганс / Christophe Gans-В ролях: Марк Дакаскос, Джули Кондра, Рэй Доун Чонг, Байрон Манн, Масая Като, Йоко Симада, Мако, Чеки Карио...-Описание: Молодого художника Йо похищают и «перепрограммируют» в «Освободителя» — изощренного элитного убийцу, обладающего безграничными, почти фантастическими возможностями, способного ликвидировать даже главарей японской якудзы, главных противников его повелителей, Сынов Дракона.
Красавица Эму оказывается случайной свидетельницей одного из убийств, совершенных Йо. Традиция «убийц — освободителей» требует, чтобы она погибла от его руки. Вместо этого, они влюбляются друг в друга и начинают одиссею страсти и насилия.-
Качество видео: DVD5
Контейнер: VOB
Видео кодек: MPEG2
Аудио кодек: AC3
Видео: MPEG 2, 720x576 (16:9), 25.000 fps, 9 800 Kbps (0.388 bit/pixel)
Аудио: Russian, AC-3, 48.0 KHz, 6 ch, 384 Kbps, CBR
Аудио #2: English, DTS, 48.0 KHz, 6 ch, 755 Kbps, CBR
Cубтитры: русские

Рецензия

Режиссеру Кристоферу Гансу удалось в одном фильме соединить несколько жанров, удержав при этом баланс между розовыми соплями, которых, кстати, в фильме и вовсе нет, экстатичным экшном, и рукопашными схватками. Как никак Ганс снимал в первую очередь мафиозный боевик, в который он внес очень хорошо прописанную любовную, взаимную страсть между убийцей и свидетельницей. В качестве сценарных ходов тут все довольно предсказуемо, это хорошо видно, особенно в начале картины, где Йо оставляет Иму Охара в живых, естественно, он же влюбился! Дальше как бы все ясно, как будет развиваться фильм. Но тут дело совсем не в сюжете, а в актерской игре, постановке самого фильма.
Главная роль плачущего убийце досталась знаменитому Марку Дакаскосу, который, кстати неоднократный чемпион Европы и международных турниров по различным видам восточных единоборств. Тут ему не только приходится махать руками, ногами, и стрелять из пистолетов, но и хорошо играть, показывая этим, что актер далеко не одного жанра (это первый и единственный фильм, где Марк проявил качества актерской игры), конечно он далеко не Де Ниро или Аль Пачино, но с задачей он справляется на отлично.
Кристофер Ганс привносит в картину просто прекрасные видеоряды, делая фильм чуть ли не шедевром (хотя до шедевра к сожалению ему как до луны) мирового кино. Ганс снял не просто какой-то бездумный боевичок, напичканный нереальными перестрелками (и эти самые перестрелки отчетливо напоминают финальный аккорд фильма «Коммандос» со Шварценеггером, в «Плачущем убийце» таких перестрелок как минимум две, а финальная не чуть ни хуже Командовсовской), а очень сильно прописанную мафиозную историю, о человеке — убийце, который тоже способен на человеческие чувства, чувства любви и долга.
Итог — Чуткий, стильный, потрясающий фильм, который украсил неподражаемый Марк Дакаскос.
10 из 10

Media Info

General
Complete name : F:\Фильмы\ЗАРУБНЖНЫЕ\Plachusсhij_ubijca_DVD5\Video_ts\VTS_01_1.VOB
Format : MPEG-PS
File size : 1 024 MiB
Duration : 27mn 10s
Overall bit rate : 5 267 Kbps
Video
ID : 224 (0xE0)
Format : MPEG Video
Format version : Version 2
Format profile : [email protected]
Format settings, Matrix : Default
Duration : 27mn 10s
Bit rate mode : Variable
Bit rate : 3 919 Kbps
Nominal bit rate : 9 800 Kbps
Width : 720 pixels
Height : 576 pixels
Display aspect ratio : 16/9
Frame rate : 25.000 fps
Standard : PAL
Colorimetry : 4:2:0
Scan type : Interlaced
Scan order : Top Field First
Bits/(Pixel*Frame) : 0.378
Stream size : 762 MiB (74%)
Audio #1
ID : 128 (0x80)
Format : AC-3
Format/Info : Audio Coding 3
Duration : 27mn 10s
Bit rate mode : Constant
Bit rate : 384 Kbps
Channel(s) : 6 channels
Channel positions : Front: L C R, Surround: L R, LFE
Sampling rate : 48.0 KHz
Stream size : 74.6 MiB (7%)
Audio #2
ID : 137 (0x89)
Format : DTS
Format/Info : Digital Theater Systems
Duration : 27mn 10s
Bit rate mode : Constant
Bit rate : 755 Kbps
Channel(s) : 6 channels
Channel positions : Front: L C R, Surround: L R, LFE
Sampling rate : 48.0 KHz
Resolution : 24 bits
Stream size : 147 MiB (14%)
Text
ID : 32 (0x20)
Format : RLE
Format/Info : Run-length encoding
Menu
Format : DVD-Video

Скриншот c названием фильма

Скриншоты

Доп. информация

Знаете ли вы, что...
Финальный бой на мечах поставили Марк Дакаскос и режиссер фильма Кристоф Ганс.
Марк Дакаскос сам выполнял все свои трюки в фильме.
Первоначально на главную роль приглашали Джейсона Скотта Ли, но у него был другой контракт и он не смог принять участия в фильме.
---Релиз от: ---
Яндекс.Метрика
Рейтинг@Mail.ru