Убить человека / Matar a un hombre (Алехандро Фернандез Альмендрас / Alejandro Fernández Almendras) [2014 г., драма, HDRip] VO (PashaUp)

 

Создавать темы 26-Дек-2014 03:27

-Убить человека / Matar a un hombre- Производство: Чили, Франция
Год выпуска: 2014 г.
Жанр: драма
Продолжительность: 01:22:04
Мировая премьера: 17 января 2014
Российская премьера: 13 июня 2014
Перевод: Любительский (одноголосый, закадровый) [PashaUp]-Режиссер: Алехандро Фернандез Альмендрас / Alejandro Fernández Almendras
В ролях: Дэниэл Кандия, Алехандра Яньес, Дэниэл Антивило, Ариэль Мателуна, Jennifer Salas, Don Willie, Paula Leoncini, Daniel Urrutia, Эдуардо Виллалобос, Sol Banoviez-Описание: Район, где живет добропорядочный семьянин, представитель среднего класса Хорхе, оказывается во власти уличных хулиганов. Однажды ночью, возвращаясь с работы, герой подвергается нападению. Сын Хорхе пытается защитить отца, но получает огнестрельное ранение. Вместе с супругой Мартой Хорхе ищет поддержку у правоохранительных органов, но сталкивается с беззаконием и бесконечной чередой бюрократических процедур. Беззащитные перед бандитами, герои фильма мучаются от страха и унижений, пока Хорхе, оказавшийся загнанным в угол, не осознает, что должен взять ситуацию в свои руки.- -Качество видео: HDRip
Контейнер: AVI
Видео кодек: XviD
Аудио кодек: AC3
Видео: 720x304 (2.37:1), 24 fps, XviD build 50 ~1977 kbps avg, 0.38 bit/pixel
Аудио: 48 kHz, AC3 Dolby Digital, 3/2 (L,C,R,l,r) + LFE ch, ~448 kbps
Cубтитры: отсутствуют

Media Info

General
Complete name : D:\Killaman.2014.L1.HDRip.1400MB.avi
Format : AVI
Format/Info : Audio Video Interleave
File size : 1.40 GiB
Duration : 1h 22mn
Overall bit rate : 2 435 Kbps
Writing application : VirtualDubMod 1.5.10.2 (build 2540/release)
Writing library : VirtualDubMod build 2540/release
Video
ID : 0
Format : MPEG-4 Visual
Format profile : Advanced [email protected]
Format settings, BVOP : 2
Format settings, QPel : No
Format settings, GMC : No warppoints
Format settings, Matrix : Default (MPEG)
Codec ID : XVID
Codec ID/Hint : XviD
Duration : 1h 22mn
Bit rate : 1 978 Kbps
Width : 720 pixels
Height : 304 pixels
Display aspect ratio : 2.35:1
Frame rate : 24.000 fps
Color space : YUV
Chroma subsampling : 4:2:0
Bit depth : 8 bits
Scan type : Progressive
Compression mode : Lossy
Bits/(Pixel*Frame) : 0.377
Stream size : 1.13 GiB (81%)
Writing library : XviD 1.2.1 (UTC 2008-12-04)
Audio
ID : 1
Format : AC-3
Format/Info : Audio Coding 3
Mode extension : CM (complete main)
Format settings, Endianness : Big
Codec ID : 2000
Duration : 1h 22mn
Bit rate mode : Constant
Bit rate : 448 Kbps
Channel(s) : 6 channels
Channel positions : Front: L C R, Side: L R, LFE
Sampling rate : 48.0 KHz
Bit depth : 16 bits
Compression mode : Lossy
Stream size : 263 MiB (18%)
Alignment : Split accross interleaves
Interleave, duration : 42 ms (1.00 video frame)
Interleave, preload duratio : 500 ms

Скриншоты

Яндекс.Метрика
Рейтинг@Mail.ru