[ Сегодня на трекере фрилич! Идет свободное скачивание без начисления Download ]

Крестный (Тимур Алпатов)(серии 1-6 из 8)IPTVRip [2014 г., драма](обновляемая)

 

Создавать темы 25-Дек-2014 20:46

-Крестный (2014) IPTVRip (серии 1-6 из 8)- Год выпуска: 2014
Жанр: драма
Продолжительность: ~00:47:00 серия
Страна: Россия
Режиссер: Тимур Алпатов
В ролях: Сергей Пускепалис, Андрей Смоляков, Северия Янушаускайте, Владимир Кошевой, Ольга Ломоносова, Дмитрий Калязин, Марина Коняшкина, Микаэл Арамян, Григорий Зельцер, Олег Тилькин, Маргарита Адаева, Дмитрий Быковский-Ромашов, Алиса Горшкова, Сергей Барковский, Дмитрий Блохин, Геннадий Смирнов, Артур Ваха, Филипп Азаров
Описание: Бывший военный врач Алехин - акушер от Бога. Во время войны в Косово он помогал роженицам, став крестным для сотен сербских и албанских ребятишек. Но в мирное время действуют другие законы. В надежде получить Нобелевскую премию, амбициозные коллеги Алехина затевают научно-медицинский эксперимент. Его цель — помочь родиться ребенку неизвестной женщины, лежащей в коме. Алехин соглашается участвовать, но не ради славы или денег. Для него важен лишь ребенок, которому необходима помощь крестного.
Качество видео: IPTVRip
Формат: AVI
Видеокодек: Xvid
Битрейт видео: ~1500 kbps
Размер кадра: 720x400 (1.80:1)
Аудиокодек: MP-3
Битрейт аудио: 128 kbps, 2 ch.
Вид субтитров: вшитые неотключаемые

MediaInfo:

Общее
Полное имя : D:\крёстный\Krjostnyj.01.IPTVRip..avi
Формат : AVI
Формат/Информация : Audio Video Interleave
Размер файла : 550 Мбайт
Продолжительность : 46 м.
Общий поток : 1637 Кбит/сек
Программа кодирования : VirtualDubMod 1.5.10.3 | www.virtualdub-fr.org || (build 2550/release)
Библиотека кодирования : VirtualDubMod build 2550/release
Видео
Идентификатор : 0
Формат : MPEG-4 Visual
Профиль формата : Advanced [email protected]
Параметр BVOP формата : 2
Параметр QPel формата : Нет
Параметр GMC формата : Без точки перехода
Параметр матрицы формата : Default (H.263)
Идентификатор кодека : XVID
Идентификатор кодека/Подсказка : XviD
Продолжительность : 46 м.
Битрейт : 1500 Кбит/сек
Ширина : 720 пикселей
Высота : 400 пикселей
Соотношение сторон : 16:9
Частота кадров : 25,000 кадров/сек
Цветовое пространство : YUV
Субдискретизация насыщенности : 4:2:0
Битовая глубина : 8 бит
Тип развёртки : Прогрессивная
Метод сжатия : С потерями
Бит/(Пиксели*Кадры) : 0.208
Размер потока : 504 Мбайт (92%)
Библиотека кодирования : XviD 1.2.1 (UTC 2008-12-04)
Аудио
Идентификатор : 1
Формат : MPEG Audio
Версия формата : Version 1
Профиль формата : Layer 3
Режим : Joint stereo
Расширение режима : MS Stereo
Идентификатор кодека : 55
Идентификатор кодека/Подсказка : MP3
Продолжительность : 46 м.
Вид битрейта : Постоянный
Битрейт : 128 Кбит/сек
Каналы : 2 канала
Частота : 48,0 КГц
Метод сжатия : С потерями
Размер потока : 43,0 Мбайт (8%)
Выравнивание : Соединение по промежуткам
Продолжительность промежутка : 40 мс. (1,00 видеокадр)
Время предзагрузки промежутка : 504 мс.
Библиотека кодирования : LAME3.99r
Настройки программы : -m j -V 4 -q 9 -lowpass 17 -b 128

Внимание! Раздача ведётся путём добавления новых серий

Внимание! Раздача ведётся путём добавления новых серий; при каждом добавлении создаётся новый торрент.
Чтобы начать докачку новой серии, пользователям необходимо сделать следующее:
1. Остановить скачивание;
2. Удалить старый торрент у себя из клиента (старые серии удалять не надо);
3. Скачать новый торрент и запустить его у себя в клиенте вместо старого, при этом указать клиенту путь в старую папку куда и должно происходить скачивание новых серий. Ваш клиент при этом должен произвести хеширование (проверку) старой папки и будет докачивать только те серии, которых у вас ещё нет. Старые серии при этом не удаляются, а продолжают раздаваться! Eсли вы уже удалили старые серии, то предотвратить повторную закачку старых серий можно, отжав галочку в соответствующих местах при запуске нового торрента.
СкриншотыОбновлено до 6 серии.
Яндекс.Метрика
Рейтинг@Mail.ru