Перехват / Waist Deep (Вонди Куртис-Холл / Vondie Curtis-Hall)<wbr> [2006 г., боевик, триллер, драма, криминал, BDRip] MVO

 

Создавать темы 25-Дек-2014 06:44

-Перехват / Waist Deep--
Производство: США
Год выпуска: 2006 г.
Жанр: боевик, триллер, драма, криминал
Продолжительность: 01:36:44
Мировая премьера: 28 апреля 2006
Перевод: Профессиональный (многоголосый, закадровый)
Режиссер: Вонди Куртис-Холл / Vondie Curtis-Hall-В ролях:
Тайриз Гибсон, Миган Гуд, Лоренц Тейт, Генри Хантер Холл, Кимора Ли, Джейсон Тэйлор, Шоун Парр, Джонни Прюитт, Дэррис Лав, Уильям Даффи-Описание:
Фильм про бывшего мошенника, который пытается встать на истинный путь. История принимает крутой поворот, когда безжалостный наркобарон похищает его сына и требует выкуп. Взяв в напарники уличную мошенницу и своего двоюродного брата, отец пускается в погоню. О2 отважно передвигается по преступным улицам Лос-Анджелеса, чтобы перехитрить злодеев и спасти сына.
-
Качество видео: BDRip
Контейнер: AVI
Видео кодек: XviD
Аудио кодек: AC3
Видео: 720x304; 1949 kbps; 23.976 fps; 0.371 Bit/Pixel
Аудио: 192 kbps; 2 ch; 48.0 kHz

Media Info

General
Complete name : D:\Torrents\Waist.Deep.2006.P.BDRip.avi
Format : AVI
Format/Info : Audio Video Interleave
File size : 1.45 GiB
Duration : 1h 36mn
Overall bit rate : 2 151 Kbps
Movie name : Waist Deep (2006)
Genre : Action/Crime/Drama/Thriller
Writing application : VirtualDubMod 1.5.10.2 (build 2542/release)
Video
ID : 0
Format : MPEG-4 Visual
Format profile : Advanced [email protected]
Format settings, BVOP : Yes
Format settings, QPel : No
Format settings, GMC : No warppoints
Format settings, Matrix : Custom
Codec ID : XVID
Codec ID/Hint : XviD
Duration : 1h 36mn
Bit rate : 1 949 Kbps
Width : 720 pixels
Height : 304 pixels
Display aspect ratio : 2.35:1
Frame rate : 23.976 fps
Color space : YUV
Chroma subsampling : 4:2:0
Bit depth : 8 bits
Scan type : Progressive
Compression mode : Lossy
Bits/(Pixel*Frame) : 0.371
Stream size : 1.32 GiB (91%)
Writing library : XviD 63
Audio
ID : 1
Format : AC-3
Format/Info : Audio Coding 3
Mode extension : CM (complete main)
Format settings, Endianness : Big
Codec ID : 2000
Duration : 1h 36mn
Bit rate mode : Constant
Bit rate : 192 Kbps
Channel(s) : 2 channels
Channel positions : Front: L R
Sampling rate : 48.0 KHz
Bit depth : 16 bits
Compression mode : Lossy
Stream size : 133 MiB (9%)
Alignment : Split accross interleaves
Interleave, duration : 42 ms (1.00 video frame)
Interleave, preload duration : 500 ms
--
Яндекс.Метрика
Рейтинг@Mail.ru