Путь самца (Сергей Черных) [2008 г., мелодрама, SATRip]

 

Создавать темы 25-Дек-2014 06:42

-Путь самца--
Производство: Россия
Режиссер: Сергей Черных
Жанр: мелодрама
Год выпуска: 2008 г.
Продолжительность: 01:43:06-В ролях:
Роман Трахтенберг, Екатерина Редникова, Борис Хвошнянский, Ирина Горячева, Роман Рязанцев, Анна Лутцева, Эрнест Тимерханов, Виталий Такс, Ольга Сухорукова, Марианна Коробейникова-Описание:
«Путь самца» — первый мужской сериал, лишенный блатного налета, псевдоромантических сентенций и мелодраматический самоистязаний, бескомпромиссно честный взгляд на отношения мужчин и женщин, лишённый чуждой этой форме явлений политкорректности. Это истории о «сексе в большом городе» глазами женщин и мужчин, живущих в российском мегаполисе, это — вызов нормам ханжеской морали, кричащей о толерантности и целомудрии, но погрязшей в угнетении и разврате, это — горькое лекарство, едкая истина о героях нашего времени, вынужденных жить по законам того общества, которому они служат. И в этой безысходной точности главная нота всех переплетающихся сюжетов, где жизнь сама всё расставит по местам, и вчерашнее чудовище может стать красавцем, а золушка превратиться в ведьму.
За всем этим шорохом слов и мельканием кадров, несомненный и главный источник переполняющих душу метаний — тоска по идеальной любви и невозможность её обрести или задержать навечно. Каждый их героев одинок и одинок по-своему, с возрастом одиночество усугубляется, закрепляясь логически, оставляя слабую надежду, что всё может быть иначе в мире, где всеми правит прагматизм…
-

Качество видео: SATRip
Контейнер: AVI
Видео кодек: XviD
Аудио кодек: AC3
Видео: 720x448; 1630 Kbps; 25.000 fps; 0.202 Bit/Pixel
Аудио: 256 kbps; 2 ch; 48.0 kHz

Media Info

Format : AVI
Format/Info : Audio Video Interleave
Format profile : OpenDML
File size : 1.37 GiB
Duration : 1h 43mn
Overall bit rate : 1 899 Kbps
Writing application : Lavf51.12.1
Video
ID : 0
Format : MPEG-4 Visual
Format profile : [email protected]
Format settings, BVOP : No
Format settings, QPel : No
Format settings, GMC : No warppoints
Format settings, Matrix : Default (H.263)
Codec ID : FMP4
Duration : 1h 43mn
Bit rate : 1 630 Kbps
Width : 720 pixels
Height : 448 pixels
Display aspect ratio : 16:10
Frame rate : 25.000 fps
Color space : YUV
Chroma subsampling : 4:2:0
Bit depth : 8 bits
Scan type : Progressive
Compression mode : Lossy
Bits/(Pixel*Frame) : 0.202
Stream size : 1.17 GiB (86%)
Writing library : Lavc51.40.4
Audio
ID : 1
Format : AC-3
Format/Info : Audio Coding 3
Mode extension : CM (complete main)
Format settings, Endianness : Big
Codec ID : 2000
Duration : 1h 43mn
Bit rate mode : Constant
Bit rate : 256 Kbps
Channel(s) : 2 channels
Channel positions : Front: L R
Sampling rate : 48.0 KHz
Bit depth : 16 bits
Compression mode : Lossy
Stream size : 189 MiB (13%)
Alignment : Aligned on interleaves
Interleave, duration : 32 ms (0.80 video frame)
Interleave, preload duration : 32 ms

Яндекс.Метрика
Рейтинг@Mail.ru