(Disco) Boney M. - Christmas With Boney M. ( Remastered ) - 2007, FLAC (image+.cue), lossless

 

Создавать темы 25-Дек-2014 06:35

--Boney M. - Christmas With Boney M.-- Жанр: Disco
Год выпуска диска: 2007
Производитель диска: Germany
Аудио кодек: FLAC
Тип рипа: image+.cue
Битрейт аудио: lossless
Продолжительность: 01:07:52
Трэклист:

01. Mary's Boy Child / Oh My Lord
02. When A Child Is Born
03. White Christmas
04. Feliz Navidad
05. Jingle Bells
06. Zion's Daughter
07. Darkness Is Fallling
08. Hark The Herald Angels Sing
09. Little Drummer Boy
10. The First Noel
11. Oh Christmas Tree
12. I'll Be Home For Christmas
13. Oh Come All Ye Faithful
14. Petit Papa Noel
15. Winter Fairy-Tale
16. Joy To The World
17. Auld Lang Syne
18. Christmas Medley
Silent Night, Holy Night / Show Falls Over The Ground /
Hear Ну The Message / Sweet Bells
19. Mary's Boy Child / Oh My Lord (feat. Daddy Cool Kids)

* Liz Mitchell - lead vocals
* Marcia Barrett - backing vocals
* Reggie Tsiboe - lead vocals "Joy To The World", "The First Noel", "Auld Lang Syne", backing vocals (1984 recordings)
* Frank Farian - lead vocal "I'll Be Home for Christmas", backing vocals
* The Christmas Choir from London - backing vocals (1981 recordings)
* Amy & Elaine Goff - lead vocals "Oh Come All Ye Faithful", backing vocals (1984 recordings)
* new recording 2007 feat. The Daddy Cool Kids

Это их последний переработанный релиз, который включает в себя альбом "Christmas Album" (1981) и плюс 6 композиций из "Christmas with Boney M." (1984).

Отчёт EAC

Exact Audio Copy V0.99 prebeta 3 from 28. July 2007
EAC extraction logfile from 20. January 2008, 14:03
BONEY M / CHRISTMAS WITH (2007)
Used drive : TSSTcorpCDDVDW SH-S203B Adapter: 6 ID: 0
Read mode : Secure
Utilize accurate stream : Yes
Defeat audio cache : Yes
Make use of C2 pointers : No
Read offset correction : 6
Overread into Lead-In and Lead-Out : No
Fill up missing offset samples with silence : Yes
Delete leading and trailing silent blocks : No
Null samples used in CRC calculations : No
Used interface : Installed external ASPI interface
Used output format : Monkey's Audio Lossless Encoder
Selected bitrate : Fast Lossless Compression
Quality : High
Add ID3 tag : No
Command line compressor : C:\Program Files\Monkey's Audio\MAC.exe
Additional command line options : -6 -V -T "ARTIST=%a" -T "TITLE=%t" -T "ALBUM=%g" -T "DATE=%y" -T "TRACKNUMBER=%n" -T "GENRE=%m" -T "COMMENT=%e" %s -o %d
TOC of the extracted CD
Track | Start | Length | Start sector | End sector
---------------------------------------------------------
1 | 0:00.00 | 5:10.40 | 0 | 23289
2 | 5:10.40 | 3:19.42 | 23290 | 38256
3 | 8:30.07 | 3:22.51 | 38257 | 53457
4 | 11:52.58 | 2:21.29 | 53458 | 64061
5 | 14:14.12 | 3:28.53 | 64062 | 79714
6 | 17:42.65 | 3:48.52 | 79715 | 96866
7 | 21:31.42 | 3:01.49 | 96867 | 110490
8 | 24:33.16 | 3:04.17 | 110491 | 124307
9 | 27:37.33 | 4:21.58 | 124308 | 143940
10 | 31:59.16 | 3:03.65 | 143941 | 157730
11 | 35:03.06 | 2:54.44 | 157731 | 170824
12 | 37:57.50 | 3:44.00 | 170825 | 187624
13 | 41:41.50 | 3:42.02 | 187625 | 204276
14 | 45:23.52 | 1:42.02 | 204277 | 211928
15 | 47:05.54 | 2:59.27 | 211929 | 225380
16 | 50:05.06 | 2:34.12 | 225381 | 236942
17 | 52:39.18 | 2:34.62 | 236943 | 248554
18 | 55:14.05 | 7:51.28 | 248555 | 283907
19 | 63:05.33 | 4:46.73 | 283908 | 305430
Range status and errors
Selected range
Filename C:\uTorrent\CD\BONEY M - CHRISTMAS WITH (2007)\BONEY M - CHRISTMAS WITH (2007).wav
Peak level 99.0 %
Range quality 100.0 %
Copy CRC 48980DE4
Copy OK
No errors occurred
AccurateRip summary
Track 1 not present in database
Track 2 not present in database
Track 3 not present in database
Track 4 not present in database
Track 5 not present in database
Track 6 not present in database
Track 7 not present in database
Track 8 not present in database
Track 9 not present in database
Track 10 not present in database
Track 11 not present in database
Track 12 not present in database
Track 13 not present in database
Track 14 not present in database
Track 15 not present in database
Track 16 not present in database
Track 17 not present in database
Track 18 not present in database
Track 19 not present in database
None of the tracks are present in the AccurateRip database
End of status report
Written, Arranged and Produced by Frank Farian,
© 2007 SONY BMG Music
Яндекс.Метрика
Рейтинг@Mail.ru