[ Сегодня на трекере фрилич! Идет свободное скачивание без начисления Download ]

Общак / The Drop (Михаэль Р. Роскам / Michael R. Roskam) [2014 г., драма, криминал, WEB-DL, 720p] Dub [iTunes] + Original (Eng) + Sub (Eng)

 

Создавать темы 25-Дек-2014 06:31

-Общак / The Drop--
Производство: США
Год выпуска: 2014 г.
Жанр: драма, криминал
Продолжительность: 01:47:00
Мировая премьера: 5 сентября 2014
Российская премьера: 30 октября 2014, «Двадцатый Век Фокс СНГ»
Дата выхода Blu-Ray: 22 января 2015, «Двадцатый Век Фокс СНГ»
Перевод: Профессиональный (полное дублирование) [iTunes]
Оригинальный аудиопоток: английский
Режиссер: Михаэль Р. Роскам / Michael R. Roskam-В ролях:
Том Харди, Нуми Рапас, Джеймс Гандольфини , Маттиас Шонартс, Джон Ортис, Элизабет Родригес, Майкл Аронов, Морган Спектор, Майкл Эспер, Росс Бикелл-Описание:
Боб Сагиновски оказывается в центре ограбления, из-за расследования которого может всплыть прошлое района, когда друзья, семьи и заклятые враги — все работали вместе, чтобы выжить…
-
Качество видео: WEB-DL
Контейнер: MKV
Видео кодек: MPEG4/AVC
Аудио кодек: AC3
Видео: 1280x532; 3873 kbps; 23.976 fps
Аудио #1: 384 kbps; 6 ch; 48.0 kHz
Аудио #2: 384 kbps; 6 ch; 48.0 kHz
Субтитры: английские

Media Info

General
Unique ID : 177164123299193065870289158492637410044 (0x854891AADB16A47BA2A9343472E8B2FC)
Complete name : D:\The.Drop.2014.D.WEB-DL.720p.mkv
Format : Matroska
Format version : Version 4 / Version 2
File size : 3.54 GiB
Duration : 1h 47mn
Overall bit rate : 4 736 Kbps
Encoded date : UTC 2014-12-24 20:48:23
Writing application : mkvmerge v7.4.0 ('Circles') 64bit built on Dec 12 2014 12:19:56
Writing library : libebml v1.3.0 + libmatroska v1.4.1
DURATION : 01:46:32.576000000
NUMBER_OF_FRAMES : 199768
NUMBER_OF_BYTES : 306843648
_STATISTICS_WRITING_APP : mkvmerge v7.4.0 ('Circles') 64bit built on Dec 12 2014 12:19:56
_STATISTICS_WRITING_DATE_UTC : 2014-12-24 20:48:23
_STATISTICS_TAGS : BPS DURATION NUMBER_OF_FRAMES NUMBER_OF_BYTES
Video
ID : 1
Format : AVC
Format/Info : Advanced Video Codec
Format profile : [email protected]
Format settings, CABAC : No
Format settings, ReFrames : 2 frames
Codec ID : V_MPEG4/ISO/AVC
Duration : 1h 47mn
Bit rate : 3 873 Kbps
Width : 1 280 pixels
Height : 532 pixels
Display aspect ratio : 2.40:1
Frame rate mode : Constant
Frame rate : 23.976 fps
Color space : YUV
Chroma subsampling : 4:2:0
Bit depth : 8 bits
Scan type : Progressive
Bits/(Pixel*Frame) : 0.237
Stream size : 2.90 GiB (82%)
Language : English
Default : Yes
Forced : No
Color primaries : BT.709
Transfer characteristics : BT.709
Matrix coefficients : BT.709
Color range : Limited
Audio #1
ID : 2
Format : AC-3
Format/Info : Audio Coding 3
Mode extension : CM (complete main)
Format settings, Endianness : Big
Codec ID : A_AC3
Duration : 1h 47mn
Bit rate mode : Constant
Bit rate : 384 Kbps
Channel(s) : 6 channels
Channel positions : Front: L C R, Side: L R, LFE
Sampling rate : 48.0 KHz
Bit depth : 16 bits
Compression mode : Lossy
Stream size : 294 MiB (8%)
Language : Russian
Default : Yes
Forced : No
Audio #2
ID : 3
Format : AC-3
Format/Info : Audio Coding 3
Mode extension : CM (complete main)
Format settings, Endianness : Big
Codec ID : A_AC3
Duration : 1h 47mn
Bit rate mode : Constant
Bit rate : 384 Kbps
Channel(s) : 6 channels
Channel positions : Front: L C R, Side: L R, LFE
Sampling rate : 48.0 KHz
Bit depth : 16 bits
Compression mode : Lossy
Stream size : 294 MiB (8%)
Language : English
Default : No
Forced : No
Text
ID : 4
Format : UTF-8
Codec ID : S_TEXT/UTF8
Codec ID/Info : UTF-8 Plain Text
Language : English
Default : No
Forced : No
Яндекс.Метрика
Рейтинг@Mail.ru