Тупой и еще тупее 2 / Dumb and Dumber To (Питер Фаррелли / Peter Farrelly, Бобби Фаррелли / Bobby Farrelly) [2014 г., комедия, WEB-Rip] DVO

 

Создавать темы 25-Дек-2014 06:30

-Тупой и еще тупее 2 / Dumb and Dumber To--
Производство: США
Год выпуска: 2014 г.
Жанр: комедия
Продолжительность: 01:37:04
Мировая премьера: 7 ноября 2014
Российская премьера: 22 января 2015, «West»
Перевод: Любительский (двухголосый, закадровый)
Режиссеры: Питер Фаррелли / Peter Farrelly , Бобби Фаррелли / Bobby Farrelly-В ролях:
Джим Керри, Джефф Дэниелс, Роб Риггл, Лори Холден, Рэйчел Мелвин, Кэтлин Тёрнер, Стив Том, Дон Лейк, Патриция Френч, Грегори Фиэрс-Описание:
Гарри Данн и Ллойд Кристмас отправляются в путешествие, чтобы разыскать ребенка Гарри, о существовании которого он не подозревал.
-
Качество видео: WEB-Rip
Контейнер: AVI
Видео кодек: XviD
Аудио кодек: AC3
Видео: 720x384; 1759 kbps; 24.000 fps; 0.265 bit/pixel
Аудио: 256 kbps; 2 ch; 44.1 kHz
Cубтитры: Корейские (hardsub)

Media Info

Формат : AVI
Формат/Информация : Audio Video Interleave
Размер файла : 1,37 Гбайт
Продолжительность : 1 ч. 37 м.
Общий поток : 2025 Кбит/сек
Программа кодирования : VirtualDubMod 1.5.10.2 (build 2540/release)
Библиотека кодирования : VirtualDubMod build 2540/release
Видео
Идентификатор : 0
Формат : MPEG-4 Visual
Профиль формата : Advanced [email protected]
Параметр BVOP формата : 2
Параметр QPel формата : Нет
Параметр GMC формата : Без точки перехода
Параметр матрицы формата : Default (MPEG)
Идентификатор кодека : XVID
Идентификатор кодека/Подсказка : XviD
Продолжительность : 1 ч. 37 м.
Битрейт : 1759 Кбит/сек
Ширина : 720 пикселей
Высота : 384 пикселя
Соотношение сторон : 1,85:1
Частота кадров : 24,000 кадра/сек
Цветовое пространство : YUV
Субдискретизация насыщенности : 4:2:0
Битовая глубина : 8 бит
Тип развёртки : Прогрессивная
Метод сжатия : С потерями
Бит/(Пиксели*Кадры) : 0.265
Размер потока : 1,19 Гбайт (87%)
Библиотека кодирования : XviD 1.2.1 (UTC 2008-12-04)
Аудио
Идентификатор : 1
Формат : AC-3
Формат/Информация : Audio Coding 3
Расширение режима : CM (complete main)
Параметр Endianness формата : Big
Идентификатор кодека : 2000
Продолжительность : 1 ч. 37 м.
Вид битрейта : Постоянный
Битрейт : 256 Кбит/сек
Каналы : 2 канала
Расположение каналов : Front: L R
Частота : 44,1 КГц
Битовая глубина : 16 бит
Метод сжатия : С потерями
Размер потока : 178 Мбайт (13%)
Выравнивание : Разделение по промежуткам
Продолжительность промежутка : 42 мс. (1,00 видеокадр)
Время предзагрузки промежутка : 500 мс.
Яндекс.Метрика
Рейтинг@Mail.ru