[ Сегодня на трекере фрилич! Идет свободное скачивание без начисления Download ]

Superнянь / Babysitting (Николас Бенаму / Nicolas Benamou, Филипп Лашо / Philippe Lacheau) [2014 г., Комедия, HDRip] Dub [iTunes]

 

Создавать темы 25-Дек-2014 06:28

-Superнянь / Babysitting-- Производство: Франция
Год выпуска: 2014 г.
Жанр: Комедия
Продолжительность: 01:24:03
Мировая премьера: 16 января 2014
Российская премьера: 20 ноября 2014
Дата выхода DVD: 18 декабря 2014
Перевод: Профессиональный (полное дублирование)[iTunes]
Режиссер: Николас Бенаму / Nicolas Benamou, Филипп Лашо / Philippe Lacheau-В ролях: Филипп Лашо, Алиса Давид, Венсан Дезанья, Тарек Будали, Жюльен Аррути, Грегуар Людиг, Давид Марсе, Жерар Жюньо, Клотильда Куро, Филипп Дюкен-Описание: Клэр и Марк уезжают на все выходные, оставив своего сына под присмотром «хорошего парня» Фрэнка. На следующее утро парочку будит звонок полицейского, который сообщает, что их дом перевернут верх дном, а сын исчез! На месте происшествия полиция находит камеру, на которой запечатлены все события предыдущей ночи. Только посмотрев видео родители смогут узнать куда исчез их сын и что случилось в эту ночь… когда Фрэнк праздновал 30-летие.-
Качество видео: HDRip
Контейнер: AVI
Видео кодек: XviD
Аудио кодек: MP3
Видео: 656x352 (1.86:1), 23.976 fps, XviD build 73 ~1099 kbps avg, 0.20 bit/pixel
Аудио: 48 kHz, MPEG Layer 3, 2 ch, ~128.00 kbps avg
Cубтитры: отсутствуют

Media Info

Общее
Полное имя : E:\Фильмы\Supernyanj 2014 HDRip.avi
Формат : AVI
Формат/Информация : Audio Video Interleave
Размер файла : 744 Мбайт
Продолжительность : 1 ч. 24 м.
Общий поток : 1237 Кбит/сек
Программа кодирования : VirtualDubMod 1.5.10.2 (build 2540/release)
Библиотека кодирования : VirtualDubMod build 2540/release
Видео
Идентификатор : 0
Формат : MPEG-4 Visual
Профиль формата : Advanced [email protected]
Параметр BVOP формата : 1
Параметр QPel формата : Нет
Параметр GMC формата : Без точки перехода
Параметр матрицы формата : Выборочная
Идентификатор кодека : XVID
Идентификатор кодека/Подсказка : XviD
Продолжительность : 1 ч. 24 м.
Битрейт : 1100 Кбит/сек
Ширина : 656 пикселей
Высота : 352 пикселя
Соотношение сторон : 1,85:1
Частота кадров : 23,976 кадра/сек
Цветовое пространство : YUV
Субдискретизация насыщенности : 4:2:0
Битовая глубина : 8 бит
Тип развёртки : Прогрессивная
Метод сжатия : С потерями
Бит/(Пиксели*Кадры) : 0.199
Размер потока : 661 Мбайт (89%)
Библиотека кодирования : XviD 73
Аудио
Идентификатор : 1
Формат : MPEG Audio
Версия формата : Version 1
Профиль формата : Layer 3
Режим : Joint stereo
Идентификатор кодека : 55
Идентификатор кодека/Подсказка : MP3
Продолжительность : 1 ч. 24 м.
Вид битрейта : Постоянный
Битрейт : 128 Кбит/сек
Каналы : 2 канала
Частота : 48,0 КГц
Метод сжатия : С потерями
Размер потока : 77,0 Мбайт (10%)
Выравнивание : Разделение по промежуткам
Продолжительность промежутка : 42 мс. (1,00 видеокадр)
Время предзагрузки промежутка : 500 мс.
Скриншоты
Яндекс.Метрика
Рейтинг@Mail.ru