С меня хватит! / Падение / Крушение / Falling Down (Джоэл Шумахер / Joel Schumacher) [1993 г., Триллер, драма, BDRip-AVC] AVO (Михалев, Живов) + Subs (Rus)

 

Создавать темы 25-Дек-2014 06:18

С меня хватит! / Падение / Крушение / Falling Down
«A Tale Of Urban Reality»
- Год выпуска: 1993
Производство: США, WARNER BROS.
Жанр: Триллер, драма
Продолжительность: 01:52:36
Перевод: Авторский (одноголосый, закадровый) Михалев, Живов
Субтитры: русские
Режиссер: Джоэл Шумахер / Joel Schumacher
В ролях: Майкл Дуглас / Michael Douglas, Роберт Дюволл / Robert Duvall, Барбара Херши / Barbara Hershey, Рэйчел Тикотин / Rachel Ticotin, Фредерик Форрест / Frederic Forrest, Тьюздэй Уэлд / Tuesday Weld
Описание: Самое страшное для американца - перестать улыбаться и возненавидеть весь белый свет. Это-то и происходит с работягой Дагласом, который в жутком стрессе начинает разрушительную одиссею по Лос-Анджелесу. Люди воспринимают его как шиза, маньяка, и только опытный детектив Дюволл знает, что с ним происходит и что дало толчок началу волны агрессии и убийств. Критика восприняла фильм как злую и горькую сатиру, однако не исключены и другие трактовки. В целом это мощная психологическая драма с насилием. (Иванов М.)

Качество видео: BDRip-AVC
Контейнер: MKV
Видео кодек: MPEG-4 AVC / H.264
Видео: 1072x448 / 2332 kbps / 23,976 fps / 2,40:1 / High Profile 4.1
Аудио#1: 48 kHz, AC3 Dolby Digital, 2/0 (L,R) ch, ~224.00 kbps avg - Михалев
Аудио#2: 48 kHz, AC3 Dolby Digital, 2/0 (L,R) ch, ~192.00 kbps avg - Живов
Формат субтитров: softsub (SRT)

Доп. информация

Дорожка с Михалевым сделана наложением чистого голоса на английский TrueHD. Спасибо -DaRkY-. К сожалению, дорожек 5.1 к этому фильму нет, только стерео. На русской лицензии и HDTV Rip'е дорожки 5.1 раздутые.

Награды

Каннский кинофестиваль, 1993 год
Номинации (1):
Золотая пальмовая ветвь

Media Info

Формат : Matroska
Версия формата : Version 4 / Version 2
Размер файла : 2,19 Гбайт
Продолжительность : 1 ч. 52 м.
Общий поток : 2783 Кбит/сек
Название фильма : Falling Down.1993.BDRip-AVC.Mihalev.Zhivov -=anton966=-
Дата кодирования : UTC 2014-12-24 10:35:18
Программа кодирования : mkvmerge v7.4.0 ('Circles') 64bit built on Dec 12 2014 12:19:56
Библиотека кодирования : libebml v1.3.0 + libmatroska v1.4.1
DURATION : 01:48:02.440000000
NUMBER_OF_FRAMES : 1153
NUMBER_OF_BYTES : 69223
_STATISTICS_WRITING_APP : mkvmerge v7.4.0 ('Circles') 64bit built on Dec 12 2014 12:19:56
_STATISTICS_WRITING_DATE_UTC : 2014-12-24 10:35:18
_STATISTICS_TAGS : BPS DURATION NUMBER_OF_FRAMES NUMBER_OF_BYTES
Видео
Идентификатор : 1
Формат : AVC
Формат/Информация : Advanced Video Codec
Профиль формата : [email protected]
Параметр CABAC формата : Да
Параметр ReFrames формата : 9 кадров
Идентификатор кодека : V_MPEG4/ISO/AVC
Продолжительность : 1 ч. 52 м.
Битрейт : 2279 Кбит/сек
Ширина : 1072 пикселя
Высота : 448 пикселей
Соотношение сторон : 2,40:1
Режим частоты кадров : Постоянный
Частота кадров : 23,976 кадра/сек
Цветовое пространство : YUV
Субдискретизация насыщенности : 4:2:0
Битовая глубина : 8 бит
Тип развёртки : Прогрессивная
Бит/(Пиксели*Кадры) : 0.198
Размер потока : 1,79 Гбайт (82%)
Заголовок : Falling Down.1993.BDRip-AVC (1072x448)
Библиотека кодирования : x264 core 142 r2491 24e4fed
Настройки программы : cabac=1 / ref=9 / deblock=1:-3:-3 / analyse=0x3:0x113 / me=umh / subme=11 / psy=1 / psy_rd=1.10:0.15 / mixed_ref=1 / me_range=32 / chroma_me=1 / trellis=2 / 8x8dct=1 / cqm=0 / deadzone=21,11 / fast_pskip=1 / chroma_qp_offset=-3 / threads=12 / lookahead_threads=3 / sliced_threads=0 / nr=0 / decimate=1 / interlaced=0 / bluray_compat=0 / constrained_intra=0 / bframes=10 / b_pyramid=2 / b_adapt=2 / b_bias=0 / direct=1 / weightb=1 / open_gop=0 / weightp=2 / keyint=250 / keyint_min=23 / scenecut=40 / intra_refresh=0 / rc=crf / mbtree=0 / crf=19.0 / qcomp=0.60 / qpmin=0 / qpmax=69 / qpstep=4 / ip_ratio=1.40 / pb_ratio=1.30 / aq=1:1.00
Язык : English
Default : Да
Forced : Нет
DURATION : 01:52:36.250000000
NUMBER_OF_FRAMES : 161988
NUMBER_OF_BYTES : 1969884897
_STATISTICS_WRITING_APP : mkvmerge v7.4.0 ('Circles') 64bit built on Dec 12 2014 12:19:56
_STATISTICS_WRITING_DATE_UTC : 2014-12-24 10:35:18
_STATISTICS_TAGS : BPS DURATION NUMBER_OF_FRAMES NUMBER_OF_BYTES
Аудио #1
Идентификатор : 2
Формат : AC-3
Формат/Информация : Audio Coding 3
Профиль формата : Dolby Digital
Расширение режима : CM (complete main)
Параметр Endianness формата : Big
Идентификатор кодека : A_AC3
Продолжительность : 1 ч. 52 м.
Вид битрейта : Постоянный
Битрейт : 224 Кбит/сек
Каналы : 2 канала
Расположение каналов : Front: L R
Частота : 48,0 КГц
Битовая глубина : 16 бит
Метод сжатия : С потерями
Размер потока : 180 Мбайт (8%)
Заголовок : Mihalev
Язык : Russian
Default : Да
Forced : Нет
Аудио #2
Идентификатор : 3
Формат : AC-3
Формат/Информация : Audio Coding 3
Профиль формата : Dolby Digital
Расширение режима : CM (complete main)
Параметр Endianness формата : Big
Идентификатор кодека : A_AC3
Продолжительность : 1 ч. 52 м.
Вид битрейта : Постоянный
Битрейт : 224 Кбит/сек
Каналы : 2 канала
Расположение каналов : Front: L R
Частота : 48,0 КГц
Битовая глубина : 16 бит
Метод сжатия : С потерями
Размер потока : 180 Мбайт (8%)
Заголовок : Zhivov
Язык : Russian
Default : Нет
Forced : Нет
Текст #1
Идентификатор : 4
Формат : UTF-8
Идентификатор кодека : S_TEXT/UTF8
Идентификатор кодека/Информация : UTF-8 Plain Text
Заголовок : Licence
Язык : Russian
Default : Нет
Forced : Нет
Текст #2
Идентификатор : 5
Формат : UTF-8
Идентификатор кодека : S_TEXT/UTF8
Идентификатор кодека/Информация : UTF-8 Plain Text
Заголовок : Alternative
Язык : Russian
Default : Нет
Forced : Нет

log x.264

avs [info]: 1072x448p 1:1 @ 24000/1001 fps (cfr)
x264 [info]: using SAR=1/1
x264 [info]: using cpu capabilities: MMX2 SSE2Fast SSSE3 SSE4.2 AVX XOP FMA4 FMA3 LZCNT BMI1
x264 [info]: profile High, level 4.1
x264 [info]: frame I:1218 Avg QP:17.71 size: 69022
x264 [info]: frame P:33605 Avg QP:19.00 size: 25267
x264 [info]: frame B:127165 Avg QP:21.10 size: 8153
x264 [info]: consecutive B-frames: 1.5% 1.9% 5.9% 18.3% 23.0% 38.8% 6.1% 2.8% 0.8% 0.6% 0.3%
x264 [info]: mb I I16..4: 12.1% 72.2% 15.7%
x264 [info]: mb P I16..4: 0.5% 11.6% 1.0% P16..4: 30.9% 37.7% 13.9% 0.0% 0.0% skip: 4.4%
x264 [info]: mb B I16..4: 0.0% 0.8% 0.1% B16..8: 38.9% 20.8% 3.1% direct: 5.6% skip:30.6% L0:41.4% L1:45.7% BI:12.9%
x264 [info]: 8x8 transform intra:86.1% inter:55.1%
x264 [info]: coded y,uvDC,uvAC intra: 97.2% 85.5% 59.6% inter: 27.2% 19.8% 1.6%
x264 [info]: i16 v,h,dc,p: 12% 9% 24% 55%
x264 [info]: i8 v,h,dc,ddl,ddr,vr,hd,vl,hu: 9% 8% 10% 10% 13% 13% 12% 12% 13%
x264 [info]: i4 v,h,dc,ddl,ddr,vr,hd,vl,hu: 10% 8% 4% 9% 16% 15% 14% 12% 13%
x264 [info]: i8c dc,h,v,p: 37% 27% 20% 16%
x264 [info]: Weighted P-Frames: Y:10.8% UV:7.2%
x264 [info]: ref P L0: 42.2% 12.2% 19.9% 6.7% 6.0% 4.1% 4.0% 2.2% 2.4% 0.3% 0.0%
x264 [info]: ref B L0: 76.1% 11.4% 5.0% 2.7% 1.9% 1.7% 0.9% 0.4%
x264 [info]: ref B L1: 93.5% 6.5%
x264 [info]: kb/s:2332.52

Скриншоты

Яндекс.Метрика
Рейтинг@Mail.ru