Магия в Лунном свете / Magic in the Moonlight (Вуди Аллен / Woody Allen) [2014 г., мелодрама, комедия, BDRip, 1080p] Dub [Чистый звук] + Original (Eng)

 

Создавать темы 25-Дек-2014 06:17

Магия в Лунном свете / Magic in the Moonlight- Год выпуска: 2014 г.
Производство: США , Dippermouth, Gravier Productions, Perdido Productions, Ske-Dat-De-Dat Productions
Жанр: мелодрама, комедия
Продолжительность: 01:37:38
Мировая премьера: 25 июля 2014
Российская премьера: 25 сентября 2014, «Централ Партнершип»
Перевод: Профессиональный (полное дублирование) [Чистый звук]
Оригинальный аудиопоток: английский
Режиссёр: Вуди Аллен / Woody Allen-В ролях: Колин Фёрт, Эмма Стоун, Антония Кларк, Наташа Эндрюс, Валери Больё, Питер Уоллаш, Юрген Цвингель, Вольфганг Писсорс, Себастьен Сиро, Саймон МакБерни-Описание: 1928 год. Выдающийся иллюзионист по просьбе своего друга и коллеги приезжает на Лазурный Берег разоблачить молодую привлекательную особу, возможно шарлатанку, якобы умеющую вызывать духов умерших. Она очаровала богатого наследника и его мать-вдову, а это не устраивает других членов семьи.
- *6.7 *7.3Качество видео: BDRip (1080p)
Контейнер: MKV
Видео кодек: AVC
Аудио кодек: AC3, DTS
Видео: 1920x808 (2.40:1), 9706 kbps, 23.976 fps
Аудио #1: Rus: AC3, 384 kbps, 2 ch, 48.0 kHz
Аудио #2: Eng: DTS, 1509 kbps, 6 ch, 48.0 kHz
Cубтитры: отсутствуют

Media Info

Общее
Уникальный идентификатор : 207161732797612207590855158036548740889 (0x9BD9E600FD738269AE70057B0B26E719)
Полное имя : Магия в Лунном свете_ Magic in the Moonlight.2014.[BDRip.1080p].mkv
Формат : Matroska
Версия формата : Version 4 / Version 2
Размер файла : 7,90 Гбайт
Продолжительность : 1 ч. 37 м.
Общий поток : 11,6 Мбит/сек
Дата кодирования : UTC 2014-12-02 11:31:05
Программа кодирования : mkvmerge v6.9.1 ('Blue Panther') 64bit built on Apr 18 2014 18:23:38
Библиотека кодирования : libebml v1.3.0 + libmatroska v1.4.1
Видео
Идентификатор : 1
Формат : AVC
Формат/Информация : Advanced Video Codec
Профиль формата : [email protected]
Параметр CABAC формата : Да
Параметр ReFrames формата : 5 кадров
Идентификатор кодека : V_MPEG4/ISO/AVC
Продолжительность : 1 ч. 37 м.
Битрейт : 9706 Кбит/сек
Ширина : 1920 пикселей
Высота : 808 пикселей
Соотношение сторон : 2,40:1
Режим частоты кадров : Постоянный
Частота кадров : 23,976 кадра/сек
Цветовое пространство : YUV
Субдискретизация насыщенности : 4:2:0
Битовая глубина : 8 бит
Тип развёртки : Прогрессивная
Бит/(Пиксели*Кадры) : 0.261
Размер потока : 6,46 Гбайт (82%)
Библиотека кодирования : x264 core 142 r2479 dd79a61
Настройки программы : cabac=1 / ref=5 / deblock=1:0:0 / analyse=0x3:0x133 / me=umh / subme=8 / psy=1 / psy_rd=1.00:0.00 / mixed_ref=1 / me_range=16 / chroma_me=1 / trellis=1 / 8x8dct=1 / cqm=0 / deadzone=21,11 / fast_pskip=0 / chroma_qp_offset=-2 / threads=18 / lookahead_threads=3 / sliced_threads=0 / nr=0 / decimate=1 / interlaced=0 / bluray_compat=0 / constrained_intra=0 / bframes=3 / b_pyramid=2 / b_adapt=1 / b_bias=0 / direct=1 / weightb=1 / open_gop=0 / weightp=2 / keyint=250 / keyint_min=23 / scenecut=40 / intra_refresh=0 / rc_lookahead=40 / rc=2pass / mbtree=1 / bitrate=9706 / ratetol=1.0 / qcomp=0.60 / qpmin=0 / qpmax=69 / qpstep=4 / cplxblur=20.0 / qblur=0.5 / ip_ratio=1.40 / aq=1:1.00
Язык : English
Default : Да
Forced : Нет
Аудио #1
Идентификатор : 2
Формат : AC-3
Формат/Информация : Audio Coding 3
Расширение режима : CM (complete main)
Параметр Endianness формата : Big
Идентификатор кодека : A_AC3
Продолжительность : 1 ч. 37 м.
Вид битрейта : Постоянный
Битрейт : 384 Кбит/сек
Каналы : 2 канала
Расположение каналов : Front: L R
Частота : 48,0 КГц
Битовая глубина : 16 бит
Метод сжатия : С потерями
Размер потока : 268 Мбайт (3%)
Default : Да
Forced : Нет
Аудио #2
Идентификатор : 3
Формат : DTS
Формат/Информация : Digital Theater Systems
Режим : 16
Параметр Endianness формата : Big
Идентификатор кодека : A_DTS
Продолжительность : 1 ч. 37 м.
Вид битрейта : Постоянный
Битрейт : 1509 Кбит/сек
Каналы : 6 каналов
Расположение каналов : Front: L C R, Side: L R, LFE
Частота : 48,0 КГц
Битовая глубина : 24 бит
Метод сжатия : С потерями
Размер потока : 1,03 Гбайт (13%)
Язык : English
Default : Нет
Forced : Нет
Меню
00:00:00.000 : en:00:00:00.000
00:09:37.494 : en:00:09:37.494
00:16:11.596 : en:00:16:11.596
00:20:17.633 : en:00:20:17.633
00:26:40.724 : en:00:26:40.724
00:32:47.966 : en:00:32:47.966
00:37:48.600 : en:00:37:48.600
00:43:56.259 : en:00:43:56.259
00:49:36.557 : en:00:49:36.557
00:53:57.192 : en:00:53:57.192
00:59:15.385 : en:00:59:15.385
01:05:28.675 : en:01:05:28.675
01:10:43.030 : en:01:10:43.030
01:18:20.195 : en:01:18:20.195
01:24:43.996 : en:01:24:43.996
01:29:39.666 : en:01:29:39.666

Ещё

Создавать темы 25-Дек-2014 18:25 (спустя 12 часов)

Топик был перенесен из форума Зарубежные Новинки (HD*Rip/LQ, DVDRip) в форум Новинки (HD)
T_O_M
Яндекс.Метрика
Рейтинг@Mail.ru