(Сhanson) Стас Михайлов - 1000 шагов - 2014 [FLAC, image+.cue, lossless]

 

Создавать темы 25-Дек-2014 06:12

-Стас Михайлов - 1000 шагов-- Год издания: 2014
Страна: Россия
Жанр: Сhanson
Продолжительность: 00:46:26-Формат: FLAC
Битрейт аудио: lossless
Тип рипа: image+.cue
Наличие сканов в содержимом раздачи: нет
-

Трэклист

01. Семь дорог
02. Озноб души
03. Ты навсегда моя
04. Ты слышишь небо
05. Брату
06. Там
07. Под прицелом объективов
08. Посланница небес
09. Страдая, падая, взлетая
10. 1000 шагов
11. Берега
12. Золотое сердце

Индексная карта (non-compilant .cue)

REM GENRE Chanson
REM DATE 2014
REM DISCID 950B1E0C
REM COMMENT "ExactAudioCopy v1.0b1"
PERFORMER "Стас Михайлов"
TITLE "1000 шагов"
FILE "Стас Михайлов - 1000 шагов.flac" WAVE
TRACK 01 AUDIO
TITLE "Семь дорог"
PERFORMER "Стас Михайлов"
INDEX 01 00:00:00
TRACK 02 AUDIO
TITLE "Озноб души"
PERFORMER "Стас Михайлов"
INDEX 01 04:30:38
TRACK 03 AUDIO
TITLE "Ты навсегда моя"
PERFORMER "Стас Михайлов"
INDEX 01 08:22:54
TRACK 04 AUDIO
TITLE "Ты слышишь небо"
PERFORMER "Стас Михайлов"
INDEX 01 13:01:08
TRACK 05 AUDIO
TITLE "Брату"
PERFORMER "Стас Михайлов"
INDEX 01 16:54:17
TRACK 06 AUDIO
TITLE "Там"
PERFORMER "Стас Михайлов"
INDEX 01 22:06:35
TRACK 07 AUDIO
TITLE "Под прицелом объективов"
PERFORMER "Стас Михайлов"
INDEX 01 25:48:16
TRACK 08 AUDIO
TITLE "Посланница небес"
PERFORMER "Стас Михайлов"
INDEX 01 28:58:12
TRACK 09 AUDIO
TITLE "Страдая, падая, взлетая"
PERFORMER "Стас Михайлов"
INDEX 01 32:35:15
TRACK 10 AUDIO
TITLE "1000 шагов"
PERFORMER "Стас Михайлов"
INDEX 01 36:23:29
TRACK 11 AUDIO
TITLE "Берега (дуэт с Эмином)"
PERFORMER "Стас Михайлов"
INDEX 01 40:07:50
TRACK 12 AUDIO
TITLE "Золотое сердце"
PERFORMER "Стас Михайлов"
INDEX 01 43:39:16

Лог Audiochecker

AUDIOCHECKER v2.0 beta (build 457) - by Dester - [email protected]
~~~~~~~~~~~~~~~~~~~~~~~~~~~~~~~~~~
-=== DO NOT EDIT THIS FILE! ===-
Path: ...\Стас Михайлов - 1000 шагов - 2014
1 -=- Стас Михайлов - 1000 шагов.flac -=- CDDA (100%)
63411076

Скриншот спектра частот

-
Яндекс.Метрика
Рейтинг@Mail.ru