(Power Metal) Axenstar - Where Dreams Are Forgotten - 2014 [FLAC, image+.cue, lossless]

 

Создавать темы 25-Дек-2014 06:01

-AxenstaR
Where Dreams Are Forgotten
-- Год издания: 2014
Страна: Sweden
Жанр: Power Metal
Продолжительность: 00:50:09-Лейбл издания: Inner Wound Recordings
Номер по каталогу: IW83039
Формат: FLAC
Битрейт аудио: lossless
Тип рипа: image+.cue
Наличие сканов в содержимом раздачи: да
-

Трэклист

01. Fear
02. Inside The Maze
03. My Sacrifice
04. Curse Of The Tyrant
05. The Return
06. Demise
07. Annihilation
08. Greed
09. The Reaper
10. This False Imagery
11. Sweet Farewell

Лог создания рипа

Exact Audio Copy V1.0 beta 3 from 29. August 2011
EAC extraction logfile from 7. December 2014, 18:40
Axenstar / Where Dreams Are Forgotten
Used drive  : hp      DVDRAM GT30L   Adapter: 0  ID: 0
Read mode               : Secure
Utilize accurate stream : Yes
Defeat audio cache      : Yes
Make use of C2 pointers : No
Read offset correction                      : 103
Overread into Lead-In and Lead-Out          : No
Fill up missing offset samples with silence : Yes
Delete leading and trailing silent blocks   : No
Null samples used in CRC calculations       : Yes
Used interface                              : Native Win32 interface for Win NT & 2000
Used output format              : User Defined Encoder
Selected bitrate                : 128 kBit/s
Quality                         : High
Add ID3 tag                     : No
Command line compressor         : C:\Program Files (x86)\Exact Audio Copy\FLAC\FLAC.EXE
Additional command line options : -V -8 -T "Date=%year%" -T "Genre=%genre%" -T"COMMENT=Ripped by  korrOZZYya" -8 -V %source%
TOC of the extracted CD
Track |   Start  |  Length  | Start sector | End sector
---------------------------------------------------------
1  |  0:00.00 |  4:21.00 |         0    |    19574
2  |  4:21.00 |  4:30.00 |     19575    |    39824
3  |  8:51.00 |  4:03.00 |     39825    |    58049
4  | 12:54.00 |  4:25.00 |     58050    |    77924
5  | 17:19.00 |  3:32.00 |     77925    |    93824
6  | 20:51.00 |  4:10.00 |     93825    |   112574
7  | 25:01.00 |  5:09.00 |    112575    |   135749
8  | 30:10.00 |  4:25.00 |    135750    |   155624
9  | 34:35.00 |  4:43.00 |    155625    |   176849
10  | 39:18.00 |  4:48.00 |    176850    |   198449
11  | 44:06.00 |  6:03.00 |    198450    |   225674
Range status and errors
Selected range
Filename D:\Music\korrOZZYya\Axenstar - Where Dreams Are Forgotten - 2014\Axenstar - Where Dreams Are Forgotten.wav
Peak level 100.0 %
Extraction speed 2.0 X
Range quality 100.0 %
Test CRC EC2C782F
Copy CRC EC2C782F
Copy OK
No errors occurred
AccurateRip summary
Track  1  not present in database
Track  2  not present in database
Track  3  not present in database
Track  4  not present in database
Track  5  not present in database
Track  6  not present in database
Track  7  not present in database
Track  8  not present in database
Track  9  not present in database
Track 10  not present in database
Track 11  not present in database
None of the tracks are present in the AccurateRip database
End of status report
---- CUETools DB Plugin V2.1.3
[CTDB TOCID: gZMaYYX0AZ22qkFcaiiW4hQqfwE-] disk not present in database, Submit result: gZMaYYX0AZ22qkFcaiiW4hQqfwE- has been uploaded
==== Log checksum 3DDEF534AE75FF05526482F6F05F61846E41D584522C4DD8652E0EDB34C484C4 ====

Индексная карта (non-compilant .cue)

REM GENRE "Power Metal"
REM DATE 2014
REM DISCID 810BC10B
REM COMMENT "ExactAudioCopy v1.0b3"
PERFORMER "Axenstar"
TITLE "Where Dreams Are Forgotten"
FILE "Axenstar - Where Dreams Are Forgotten.flac" WAVE
TRACK 01 AUDIO
TITLE "Fear"
PERFORMER "Axenstar"
FLAGS DCP
INDEX 01 00:00:00
TRACK 02 AUDIO
TITLE "Inside The Maze"
PERFORMER "Axenstar"
FLAGS DCP
INDEX 01 04:21:00
TRACK 03 AUDIO
TITLE "My Sacrifice"
PERFORMER "Axenstar"
FLAGS DCP
INDEX 01 08:51:00
TRACK 04 AUDIO
TITLE "Curse Of The Tyrant"
PERFORMER "Axenstar"
FLAGS DCP
INDEX 01 12:54:00
TRACK 05 AUDIO
TITLE "The Return"
PERFORMER "Axenstar"
FLAGS DCP
INDEX 01 17:19:00
TRACK 06 AUDIO
TITLE "Demise"
PERFORMER "Axenstar"
FLAGS DCP
INDEX 01 20:51:00
TRACK 07 AUDIO
TITLE "Annihilation"
PERFORMER "Axenstar"
FLAGS DCP
INDEX 01 25:01:00
TRACK 08 AUDIO
TITLE "Greed"
PERFORMER "Axenstar"
FLAGS DCP
INDEX 01 30:10:00
TRACK 09 AUDIO
TITLE "The Reaper"
PERFORMER "Axenstar"
FLAGS DCP
INDEX 01 34:35:00
TRACK 10 AUDIO
TITLE "This False Imagery"
PERFORMER "Axenstar"
FLAGS DCP
INDEX 01 39:18:00
TRACK 11 AUDIO
TITLE "Sweet Farewell"
PERFORMER "Axenstar"
FLAGS DCP
INDEX 01 44:06:00
-
Яндекс.Метрика
Рейтинг@Mail.ru